<?xml version="1.0" encoding="UTF-8" standalone="no"?> <svg xmlns="http://www.w3.org/2000/svg"><defs><font id="Oswald"><glyph unicode=" "></glyph><glyph unicode="!" d="M90 190L49 809H185L137 190H90ZM48 0V132H180V0H48Z"></glyph><glyph unicode="&quot;" d="M23 535V810H141L89 535H23ZM185 535V810H303L252 535H185Z"></glyph><glyph unicode="#" d="M53 0L89 279H40L41 370H102L116 477H43L44 570H131L162 810H268L237 570H320L352 810H457L425 570H473L471 477H411L397 370H468L467 279H384L347 0H241L278 279H195L159 0H53ZM207 370H291L305 477H222L207 370Z"></glyph><glyph unicode="$" d="M239 -94V-10Q136 -6 86 57T30 236L158 261Q160 214 169 178T197 123T249 103Q285 103 300 124T316 179Q316 232 292 266T228 334L125 424Q97 449 76 476T43 538T31 619Q31 710 83 761T223 818V899H266V819Q317 816 350 797T402 747T431 678T443 599L317 577Q315 615 309 645T287 693T238 709Q204 708 187 687T169 634Q169 591 188 565T235 512L337 423Q369 394 396 360T440 284T457 188Q457 134 436 92T375 23T282 -9V-94H239Z"></glyph><glyph unicode="%" d="M311 0L548 810H639L403 0H311ZM214 365Q121 365 81 417T41 566V616Q41 715 80 764T214 813Q309 813 348 766T388 619V564Q388 467 348 416T214 365ZM214 457Q240 457 252 471T268 510T272 568V615Q272 665 263 692T214 720Q175 720 166 693T157 615V567Q157 535 161 510T177 471T214 457ZM735 -3Q642 -3 603 49T563 199V248Q563 347 601 396T735 446Q831 446 870 398T909 251V197Q909 99 869 48T735 -3ZM735 90Q761 90 773 104T789 143T793 200V248Q793 298 784 325T735 353Q696 353 687 325T678 248V200Q678 167 682 143T698 104T735 90Z"></glyph><glyph unicode="&amp;" d="M232 -11Q176 -11 135 12T71 78T48 178Q48 255 81 312T165 417Q146 453 126 489T93 564T80 641Q80 693 101 733T161 796T255 820Q306 820 344 800T406 744T429 658Q429 604 406 558T349 475T285 405L393 220Q403 238 410 266T421 326T428 385H536Q536 336 527 292T501 211T466 141Q478 127 497 117T539 105V-10Q533 -11 528 -11T517 -12Q490 -11 467 0T425 29T391 63Q365 30 325 10T232 -11ZM235 89Q265 89 287 104T325 139L214 326Q191 293 179 257T167 181Q167 157 174 136T196 102T235 89ZM243 477Q260 499 276 530T302 595T312 660Q312 687 296 702T256 718Q228 718 214 696T200 641Q200 598 214 556T243 477Z"></glyph><glyph unicode="'" d="M23 535V810H138L91 535H23Z"></glyph><glyph unicode="(" d="M286 -186Q224 -186 184 -159T120 -83T85 29T70 166T67 314Q67 392 70 466T84 604T120 716T184 791T286 818V724Q255 724 237 692T209 604T198 474T195 314Q195 227 197 153T209 24T237 -61T286 -93V-186Z"></glyph><glyph unicode=")" d="M32 -186V-92Q63 -92 81 -61T109 25T121 155T124 315Q124 401 121 475T110 605T83 692T32 725V818Q94 818 134 792T199 717T234 605T248 468T251 315Q251 240 248 167T234 30T199 -82T135 -158T32 -186Z"></glyph><glyph unicode="*" d="M159 459L79 507L155 613L42 656L74 739L178 682L166 810H268L255 682L361 739L391 656L279 612L355 507L273 459L217 574L159 459Z"></glyph><glyph unicode="+" d="M168 209V371H26V459H168V618H262V459H407V371H262V209H168Z"></glyph><glyph unicode="," d="M63 -136L49 -86Q76 -78 95 -58T114 0H42V135H175V12Q175 -52 147 -88T63 -136Z"></glyph><glyph unicode="-" d="M57 281V373H298V281H57Z"></glyph><glyph unicode="." d="M47 0V137H179V0H47Z"></glyph><glyph unicode="/" d="M36 0L270 810H360L126 0H36Z"></glyph><glyph unicode="0" d="M267 -12Q196 -12 150 18T80 101T56 223V582Q56 653 78 706T147 790T267 820Q340 820 386 790T455 707T478 582V223Q478 154 455 101T385 18T267 -12ZM267 107Q298 107 313 126T333 172T338 225V580Q338 608 334 635T314 682T267 701Q235 701 220 682T201 636T196 580V225Q196 199 201 172T222 126T267 107Z"></glyph><glyph unicode="1" d="M151 0V657Q145 654 128 648T89 637T51 626T26 618V721Q40 726 61 735T105 755T149 781T183 810H289V0H151Z"></glyph><glyph unicode="2" d="M41 0V98L241 407Q263 441 282 472T314 536T327 610Q327 655 311 679T261 703Q229 703 211 685T187 638T180 574V540H44V576Q44 648 65 702T134 788T257 819Q361 819 413 763T465 607Q465 557 451 517T414 439T364 363L198 111H444V0H41Z"></glyph><glyph unicode="3" d="M250 -12Q174 -12 128 16T60 97T39 220V248H176Q176 245 176 238T176 224Q177 186 183 159T205 118T251 104Q282 104 297 119T318 163T324 232Q324 294 305 329T229 368Q227 368 220 368T206 368V479Q211 479 216 479T227 479Q282 480 303 508T324 600Q324 651 309 680T249 709Q206 709 192 677T176 594Q176 587 176 580T176 564H39V603Q39 672 63 720T135 794T249 820Q318 820 365 795T436 723T461 606Q461 534 431 488T354 428Q386 418 410 394T447 330T461 234Q461 161 441 106T374 19T250 -12Z"></glyph><glyph unicode="4" d="M274 0V199H32V317L243 810H404V309H487V199H404V0H274ZM148 309H274V661L148 309Z"></glyph><glyph unicode="5" d="M249 -12Q168 -12 124 18T62 103T45 232H180Q180 191 185 160T207 111T256 94Q291 94 305 116T324 179T328 274Q328 321 323 356T301 410T251 430Q222 430 203 411T175 359H56L64 810H428V686H180L172 491Q187 509 215 520T279 533Q343 536 383 506T442 419T461 283Q461 219 453 165T421 72T357 10T249 -12Z"></glyph><glyph unicode="6" d="M267 -11Q192 -11 145 24T77 119T55 255V539Q55 618 73 681T137 782T266 819Q337 819 381 796T447 727T468 616Q468 613 468 610T469 603H336Q336 657 323 684T267 711Q241 711 225 695T202 643T194 545V448Q208 471 236 484T303 498Q369 499 407 469T461 386T478 265Q478 186 458 124T392 25T267 -11ZM268 96Q297 96 312 114T333 164T339 239Q339 283 336 317T317 372T267 393Q250 393 236 387T211 370T194 350V223Q194 189 200 160T223 114T268 96Z"></glyph><glyph unicode="7" d="M79 0L240 704H21V810H376V725L213 0H79Z"></glyph><glyph unicode="8" d="M255 -11Q178 -11 131 20T64 106T44 235Q44 270 50 299T69 353T100 395T141 426Q105 451 81 494T55 605Q55 671 76 719T143 793T255 819Q323 819 367 793T432 719T453 605Q452 537 429 494T369 426Q392 414 410 396T440 353T459 300T466 235Q467 162 447 107T380 20T255 -11ZM255 94Q288 94 304 114T326 164T331 227Q332 261 326 292T304 344T255 364Q224 364 208 344T185 293T178 227Q178 195 183 164T206 114T255 94ZM255 481Q280 482 294 498T315 544T321 610Q321 656 306 685T255 714Q220 714 204 685T187 611Q187 574 193 545T215 499T255 481Z"></glyph><glyph unicode="9" d="M253 -11Q183 -11 138 13T72 83T51 195Q51 197 51 200T51 206H183Q183 152 196 125T254 98Q281 98 296 114T318 167T325 264V361Q311 338 283 325T216 311Q151 310 113 341T58 427T41 549Q41 629 62 689T130 784T253 819Q328 819 375 786T443 693T465 558V271Q465 192 447 128T383 27T253 -11ZM254 416Q282 416 298 430T325 460V586Q325 621 319 649T298 695T253 713Q225 713 210 695T188 645T182 570Q182 527 185 492T204 437T254 416Z"></glyph><glyph unicode=":" d="M64 413V547H194V413H64ZM64 75V209H194V75H64Z"></glyph><glyph unicode=";" d="M84 -83L70 -33Q99 -30 117 -13T135 42H64V176H196V53Q196 -10 170 -46T84 -83ZM63 434V570H194V434H63Z"></glyph><glyph unicode="&lt;" d="M328 69L30 279V396L328 606V481L130 337L328 194V69Z"></glyph><glyph unicode="=" d="M59 446V537H371V446H59ZM59 262V353H371V262H59Z"></glyph><glyph unicode="&gt;" d="M56 69V194L256 338L56 481V606L355 396V279L56 69Z"></glyph><glyph unicode="?" d="M145 208V335Q192 374 230 417T291 510T314 613Q314 655 295 678T240 702Q208 702 190 684T171 635Q171 621 174 609T181 583L57 556Q50 576 47 595T43 635Q43 719 94 769T242 819Q340 819 394 766T448 615Q448 551 426 497T362 396T267 306V208H145ZM140 0V133H274V0H140Z"></glyph><glyph unicode="@" d="M471 -130Q371 -130 292 -101T158 -15T78 125T58 318Q64 436 99 528T195 682T341 777T528 810Q626 810 697 778T812 689T876 559T890 401Q888 345 872 291T824 194T747 125T643 99Q616 99 592 108T550 136T528 182Q519 153 495 130T433 104Q380 100 343 125T288 196T271 297Q272 347 287 401T332 503T405 579T503 609Q521 609 534 600T557 580T573 560L583 602H688L638 255Q636 240 635 222T637 191T655 175Q680 172 704 188T748 234T780 306T795 396Q799 465 786 524T739 627T651 695T518 719Q436 719 372 690T264 607T195 481T166 321Q162 251 172 194T207 93T271 21T363 -24T484 -39Q511 -39 543 -36T609 -25T674 -9L692 -98Q637 -112 581 -121T471 -130ZM461 200Q475 202 496 216T526 265L558 499Q555 504 546 506T529 509Q489 509 459 479T410 400T392 296Q392 269 399 246T421 210T461 200Z"></glyph><glyph unicode="A" d="M20 0L182 810H340L502 0H365L333 187H192L159 0H20ZM207 281H317L262 621L207 281Z"></glyph><glyph unicode="B" d="M61 0V810H260Q314 810 357 800T432 767T481 703T498 602Q498 553 485 518T445 463T380 435Q428 427 459 402T506 335T522 236Q522 178 508 134T465 60T394 15T294 0H61ZM209 104H265Q332 104 356 136T380 237Q380 286 369 316T331 362T260 377H209V104ZM209 479H259Q303 479 327 492T360 532T370 600Q370 643 356 666T312 698T238 707H209V479Z"></glyph><glyph unicode="C" d="M279 -11Q190 -11 140 24T69 119T49 259V548Q49 631 69 692T139 786T279 819Q363 819 410 791T478 709T498 586V518H356V588Q356 622 353 650T334 694T280 711Q242 711 225 694T202 647T197 580V228Q197 184 204 156T229 113T280 98Q317 98 332 115T352 162T356 227V300H498V235Q498 163 479 108T413 21T279 -11Z"></glyph><glyph unicode="D" d="M61 0V810H252Q351 810 406 783T485 700T509 558V262Q509 174 486 116T408 29T258 0H61ZM209 103H254Q305 103 327 121T354 173T359 258V568Q359 617 352 647T323 691T252 705H209V103Z"></glyph><glyph unicode="E" d="M61 0V810H401V706H209V473H360V370H209V102H403V0H61Z"></glyph><glyph unicode="F" d="M61 0V810H394V708H209V472H360V369H209V0H61Z"></glyph><glyph unicode="G" d="M264 -11Q184 -11 137 23T70 119T49 267V539Q49 626 69 689T139 785T279 819Q362 819 411 791T481 711T503 583V541H362V587Q362 626 357 654T335 696T281 711Q242 711 225 692T203 642T198 574V235Q198 193 205 162T231 115T285 98Q321 98 340 116T366 166T374 242V318H287V411H507V0H412L401 80Q385 40 353 15T264 -11Z"></glyph><glyph unicode="H" d="M63 0V810H210V471H375V810H523V0H375V366H210V0H63Z"></glyph><glyph unicode="I" d="M65 0V810H211V0H65Z"></glyph><glyph unicode="J" d="M10 -20V84Q42 84 63 88T95 102T112 133T117 186V810H264V180Q264 112 248 68T193 2T81 -20H10Z"></glyph><glyph unicode="K" d="M61 0V810H209V454L369 810H510L355 448L526 0H379L243 369L209 307V0H61Z"></glyph><glyph unicode="L" d="M61 0V810H209V102H405V0H61Z"></glyph><glyph unicode="M" d="M59 0L73 810H226L341 249L461 810H609L624 0H514L502 563L387 0H298L181 565L170 0H59Z"></glyph><glyph unicode="N" d="M61 0V810H164L361 348V810H483V0H385L187 484V0H61Z"></glyph><glyph unicode="O" d="M281 -11Q195 -11 144 21T71 113T49 255V558Q49 640 71 698T144 788T281 819Q369 819 419 788T492 699T515 558V254Q515 173 493 114T420 22T281 -11ZM281 98Q318 98 335 114T359 158T365 219V592Q365 626 359 653T336 695T281 711Q246 711 228 696T204 653T198 592V219Q198 186 203 158T227 114T281 98Z"></glyph><glyph unicode="P" d="M61 0V810H299Q372 810 417 783T484 705T506 580Q506 501 479 453T404 382T289 360H209V0H61ZM209 464H265Q305 464 327 475T358 512T367 581Q367 625 361 652T333 693T265 706H209V464Z"></glyph><glyph unicode="Q" d="M456 -161Q431 -149 403 -125T347 -71T299 -10Q295 -11 291 -11T281 -11Q195 -11 144 21T71 113T49 255V558Q49 640 71 698T144 788T281 819Q369 819 420 788T493 699T515 558V254Q515 196 504 149T468 68T402 14Q415 0 429 -15T457 -43T484 -64L456 -161ZM281 98Q318 98 336 114T360 158T366 219V592Q366 626 360 653T336 695T281 711Q245 711 227 696T204 653T198 592V219Q198 186 203 158T227 114T281 98Z"></glyph><glyph unicode="R" d="M61 0V810H255Q337 810 393 791T479 724T509 596Q509 547 500 508T470 442T410 399L523 0H375L277 371H209V0H61ZM209 464H255Q298 464 323 476T360 516T371 587Q371 648 349 678T263 709H209V464Z"></glyph><glyph unicode="S" d="M265 -11Q192 -11 143 17T69 101T41 236L168 261Q170 214 179 178T208 123T260 103Q296 103 311 124T326 179Q326 232 302 266T238 334L136 424Q93 461 68 506T42 619Q42 715 98 767T251 819Q308 819 346 802T406 753T440 683T454 599L328 577Q326 615 320 645T297 692T248 709Q215 709 198 688T180 634Q180 593 197 567T246 512L347 423Q397 381 432 325T468 188Q468 130 443 85T372 15T265 -11Z"></glyph><glyph unicode="T" d="M142 0V701H13V810H417V701H290V0H142Z"></glyph><glyph unicode="U" d="M283 -11Q193 -11 143 22T74 116T55 262V810H199V245Q199 207 204 174T227 120T283 99Q322 99 339 119T362 173T368 245V810H511V262Q511 177 492 116T424 22T283 -11Z"></glyph><glyph unicode="V" d="M185 0L22 810H153L260 237L360 810H494L331 0H185Z"></glyph><glyph unicode="W" d="M146 0L31 810H155L222 285L306 808H407L493 285L559 810H681L568 0H448L358 543L269 0H146Z"></glyph><glyph unicode="X" d="M10 0L173 430L15 810H153L258 559L350 810H478L322 402L490 0H352L237 272L137 0H10Z"></glyph><glyph unicode="Y" d="M174 0V309L10 810H148L248 489L342 810H477L315 309V0H174Z"></glyph><glyph unicode="Z" d="M33 0V95L251 708H45V810H400V734L174 102H401V0H33Z"></glyph><glyph unicode="[" d="M57 -185V810H293V751H175V-125H293V-185H57Z"></glyph><glyph unicode="\" d="M270 0L36 810H126L360 0H270Z"></glyph><glyph unicode="]" d="M24 -185V-125H142V750H23V810H260V-185H24Z"></glyph><glyph unicode="^" d="M32 481L171 810H289L429 481H308L230 699L152 481H32Z"></glyph><glyph unicode="_" d="M0 -151V-56H356V-151H0Z"></glyph><glyph unicode="`" d="M166 610L49 810H186L245 610H166Z"></glyph><glyph unicode="a" d="M164 -9Q125 -9 97 11T54 63T39 129Q39 183 59 220T112 282T187 325T272 359V409Q272 434 269 451T256 477T226 486Q209 486 199 478T184 456T178 422L176 387L47 392Q50 492 96 539T238 587Q325 587 364 539T404 409V142Q404 110 405 84T409 37T414 0H292Q289 20 285 45T278 83Q268 48 240 20T164 -9ZM214 92Q227 92 238 98T259 114T272 130V291Q250 278 231 265T197 237T175 203T167 161Q167 129 179 111T214 92Z"></glyph><glyph unicode="b" d="M301 -9Q269 -9 241 6T189 43V0H53V810H189V534Q214 558 243 572T307 587Q346 587 371 569T410 522T429 459T435 394V198Q435 141 422 94T379 19T301 -9ZM249 86Q271 86 281 100T295 139T299 193V400Q299 427 295 448T281 483T248 496Q232 496 217 489T189 472V107Q202 98 217 92T249 86Z"></glyph><glyph unicode="c" d="M226 -9Q159 -9 119 16T60 89T41 202V376Q41 443 59 490T119 562T226 587Q288 587 327 568T385 509T403 409V361H275V412Q275 442 271 459T255 484T226 492Q208 492 197 483T182 452T177 394V182Q177 126 189 107T227 87Q247 87 257 96T271 122T275 165V227H403V172Q403 114 385 73T327 12T226 -9Z"></glyph><glyph unicode="d" d="M182 -9Q113 -9 78 40T42 197V374Q42 434 55 482T99 558T180 587Q211 587 237 575T286 542V810H422V0H286V41Q263 18 237 5T182 -9ZM232 85Q243 85 257 90T286 104V475Q274 483 260 488T231 494Q202 494 191 468T179 403V187Q179 158 183 135T198 99T232 85Z"></glyph><glyph unicode="e" d="M227 -9Q162 -9 121 15T61 87T41 202V376Q41 445 60 492T121 563T227 587Q296 587 334 561T389 486T406 365V283H176V169Q176 141 181 123T199 97T228 89Q246 89 257 97T273 122T278 164V212H405V173Q405 85 361 38T227 -9ZM176 350H278V405Q278 435 273 453T257 480T226 489Q208 489 197 480T181 450T176 390V350Z"></glyph><glyph unicode="f" d="M80 0V483H18V578H80V615Q80 667 89 705T129 765T222 786Q241 786 258 785T296 780V679Q288 681 278 682T258 684Q234 684 225 669T216 625V578H296V483H216V0H80Z"></glyph><glyph unicode="g" d="M222 -190Q163 -190 118 -178T48 -141T23 -76Q23 -49 34 -28T66 10T109 37Q76 46 59 66T41 114Q41 148 58 172T105 223Q74 248 59 285T43 384Q43 450 64 495T127 564T229 587Q275 587 306 574T357 533Q365 545 385 563T431 593L449 601L482 528Q471 525 453 518T416 503T388 489Q397 469 403 439T409 382Q409 321 390 276T332 207T229 182Q208 182 188 185T151 194Q145 185 140 175T134 154Q134 143 146 136T186 126L308 114Q379 107 413 70T447 -32Q447 -84 424 -119T351 -172T222 -190ZM237 -88Q293 -88 321 -77T349 -37Q349 -21 342 -11T317 5T266 15L167 24Q156 15 148 6T134 -15T129 -38Q129 -63 153 -75T237 -88ZM229 269Q247 269 258 275T275 296T283 333T285 384Q285 413 283 435T276 472T259 494T229 501Q211 501 200 494T183 473T175 436T172 384Q172 356 174 335T182 299T199 277T229 269Z"></glyph><glyph unicode="h" d="M54 0V810H190V523Q220 553 255 570T333 587Q368 587 389 570T420 523T430 460V0H294V433Q294 459 286 473T255 487Q241 487 224 479T190 458V0H54Z"></glyph><glyph unicode="i" d="M56 0V578H192V0H56ZM56 670V783H192V670H56Z"></glyph><glyph unicode="j" d="M58 -164Q40 -164 21 -161T-14 -153V-56Q-8 -57 0 -58T15 -59Q33 -59 44 -52T60 -32T66 0V578H202V-16Q202 -84 165 -124T58 -164ZM66 670V783H203V670H66Z"></glyph><glyph unicode="k" d="M53 0V810H189V345L338 578H486L341 346L483 0H340L235 285L189 221V0H53Z"></glyph><glyph unicode="l" d="M61 0V810H196V0H61Z"></glyph><glyph unicode="m" d="M52 0V578H183V528Q213 560 248 574T319 589Q353 589 378 572T416 518Q449 556 486 572T562 589Q593 589 617 574T655 528T669 451V0H539V439Q539 472 528 484T497 497Q481 497 462 488T426 463Q426 460 426 458T426 451V0H297V439Q297 472 286 484T254 497Q238 497 219 488T183 463V0H52Z"></glyph><glyph unicode="n" d="M52 0V578H188V520Q219 550 253 568T328 587Q364 587 385 570T416 523T426 460V0H290V433Q290 459 282 473T251 487Q237 487 221 479T188 459V0H52Z"></glyph><glyph unicode="o" d="M227 -9Q164 -9 123 14T62 83T41 192V386Q41 450 61 495T123 563T227 587Q290 587 331 564T393 495T414 386V192Q414 128 394 83T332 15T227 -9ZM228 85Q251 85 262 98T276 133T279 183V395Q279 422 276 444T262 479T228 493Q205 493 194 480T180 444T176 395V183Q176 156 179 134T194 98T228 85Z"></glyph><glyph unicode="p" d="M52 -190V578H188V534Q213 558 243 572T306 587Q345 587 370 569T409 522T428 459T434 394V198Q434 141 421 94T378 19T299 -9Q268 -9 241 6T188 44V-190H52ZM248 86Q270 86 280 100T294 139T298 193V400Q298 427 294 448T279 483T247 496Q231 496 216 489T188 471V106Q201 97 216 92T248 86Z"></glyph><glyph unicode="q" d="M287 -190V43Q264 19 238 5T182 -9Q113 -9 78 40T43 197V374Q43 434 56 482T99 558T181 587Q212 587 238 574T287 540V578H423V-190H287ZM233 85Q244 85 258 90T287 104V474Q275 483 261 488T232 494Q202 494 191 468T179 403V187Q179 158 183 135T199 99T233 85Z"></glyph><glyph unicode="r" d="M55 0V578H191V489Q221 540 251 562T317 585Q323 585 327 585T338 583V442Q326 447 312 450T282 454Q255 454 233 441T191 398V0H55Z"></glyph><glyph unicode="s" d="M209 -9Q136 -9 89 30T22 144L123 183Q135 136 155 111T207 86Q231 86 243 98T255 131Q255 155 241 174T191 223L121 282Q83 315 60 349T36 436Q36 483 57 516T116 568T200 587Q270 587 312 546T367 437L278 399Q273 423 264 443T239 477T204 490Q183 490 171 477T158 444Q158 427 172 409T214 368L285 304Q308 284 329 261T364 210T378 144Q378 94 356 60T295 9T209 -9Z"></glyph><glyph unicode="t" d="M219 -7Q164 -7 133 11T88 63T75 144V488H17V578H75V751H212V578H300V488H212V156Q212 126 225 114T264 101Q275 101 285 102T306 104V0Q289 -2 267 -4T219 -7Z"></glyph><glyph unicode="u" d="M145 -9Q111 -9 89 8T57 55T47 118V578H183V143Q183 117 191 103T223 88Q238 88 253 96T284 115V578H420V0H284V55Q255 27 220 9T145 -9Z"></glyph><glyph unicode="v" d="M127 0L12 578H145L204 163L262 578H393L278 0H127Z"></glyph><glyph unicode="w" d="M113 0L24 578H137L188 203L248 578H349L406 199L461 578H568L477 0H362L298 365L231 0H113Z"></glyph><glyph unicode="x" d="M10 0L136 311L15 578H149L222 418L286 578H402L279 292L411 0H276L196 177L129 0H10Z"></glyph><glyph unicode="y" d="M56 -157V-59Q91 -59 113 -55T145 -41T155 -13Q155 0 149 28T134 89L7 578H139L214 197L279 578H410L275 -23Q264 -74 238 -103T173 -144T82 -157H56Z"></glyph><glyph unicode="z" d="M34 0V89L201 478H48V578H345V499L175 101H344V0H34Z"></glyph><glyph unicode="{" d="M311 -192Q240 -192 199 -183T137 -151T112 -88T106 16V125Q106 189 102 219T85 258T44 267V363Q72 363 85 372T102 412T106 505V614Q106 678 111 718T137 782T198 814T311 823V728Q286 728 271 724T248 709T239 673T237 610V488Q237 408 220 367T161 315Q202 305 219 264T237 143V20Q237 -20 239 -43T248 -78T270 -94T311 -98V-192Z"></glyph><glyph unicode="|" d="M66 -165L67 810H184V-165H66Z"></glyph><glyph unicode="}" d="M40 -192V-98Q66 -98 81 -94T103 -79T112 -44T114 20V143Q114 223 132 264T191 315Q150 325 132 366T114 488V610Q114 649 112 673T103 708T81 724T40 728V823Q112 823 153 814T214 782T240 719T246 614V505Q246 443 250 413T267 373T307 363V267Q280 267 267 258T250 219T246 125V16Q246 -47 241 -87T215 -151T153 -183T40 -192Z"></glyph><glyph unicode="~" d="M312 348Q285 348 256 362T201 391T153 405Q141 405 121 394T83 362L38 422Q51 440 71 459T114 491T156 505Q183 505 211 491T266 463T313 448Q327 448 346 461T383 492L431 438Q419 418 399 397T356 362T312 348Z"></glyph><glyph unicode=" "></glyph><glyph unicode="¡" d="M43 -167L91 452H138L179 -167H43ZM49 511V642H181V511H49Z"></glyph><glyph unicode="¢" d="M196 -106V-8Q140 -2 106 25T56 97T40 202V376Q40 438 56 483T106 554T196 586V683H234V587Q294 586 331 566T385 506T403 409V361H274V410Q274 441 270 458T255 482T226 489Q207 489 196 481T181 451T176 391V184Q176 127 188 108T226 89Q246 89 256 98T270 124T274 167V227H403V172Q403 115 386 75T331 14T234 -9V-106H196Z"></glyph><glyph unicode="£" d="M12 0V74L71 101V337H12V441H71V533Q71 592 76 643T100 734T155 796T254 819Q319 819 354 794T403 724T418 622Q418 614 418 606T418 593H305Q305 623 302 649T289 690T255 706Q231 706 221 688T207 641T204 575V441H323V337H204V110H414V0H12Z"></glyph><glyph unicode="¤" d="M54 186L39 201L119 280Q94 308 79 345T64 423Q64 464 79 501T119 566L39 645L54 660L133 581Q161 607 197 622T276 637Q318 637 354 622T419 581L498 660L513 645L434 566Q459 538 473 501T487 423Q487 382 473 345T433 280L513 201L498 186L419 265Q391 239 355 224T276 209Q234 208 198 223T133 265L54 186ZM276 253Q323 253 360 276T419 337T441 423Q441 470 420 508T361 570T276 593Q230 593 193 570T134 509T112 423Q112 376 134 338T193 276T276 253Z"></glyph><glyph unicode="¥" d="M170 0V118H83V193H170V258H83V334H153L5 810H143L243 460L337 810H473L326 334H396V258H310V193H396V118H310V0H170Z"></glyph><glyph unicode="¦" d="M57 401V810H157V401H57ZM57 -167V241H157V-167H57Z"></glyph><glyph unicode="§" d="M224 -7Q172 -7 137 14T79 72T46 152L141 179Q147 161 158 141T186 108T225 94Q253 94 269 107T288 146Q289 163 283 177T264 205T227 234L126 299Q92 321 68 351T45 430Q47 477 72 508T131 552Q101 571 74 604T44 679Q43 727 66 760T131 810T224 828Q276 828 312 807T372 749T405 669L311 643Q304 662 294 682T268 715T226 728Q201 727 186 714T170 675Q170 659 178 647T198 625T220 608L321 544Q358 521 381 486T403 405Q403 362 381 333T326 284Q360 256 381 225T403 150Q403 77 355 35T224 -7ZM249 344Q264 352 278 365T293 400Q293 413 286 429T259 457L207 491Q189 484 175 468T161 430Q161 417 168 405T186 385L249 344Z"></glyph><glyph unicode="¨" d="M243 680V810H363V680H243ZM49 680V810H168V680H49Z"></glyph><glyph unicode="©" d="M437 -12Q330 -12 254 24T130 122T59 258T36 409Q36 485 59 559T130 695T254 792T437 829Q543 829 619 793T743 695T814 560T837 409Q837 333 815 258T744 122T620 25T437 -12ZM437 123Q382 123 343 138T281 181T246 248T235 337V490Q235 557 255 604T319 677T437 703Q505 703 547 683T610 624T631 525V482H492V525Q492 556 487 574T469 599T438 606Q416 606 404 597T386 566T381 505V318Q381 279 387 258T405 229T438 221Q460 221 471 230T487 257T492 301V350H631V306Q631 247 611 206T547 144T437 123ZM439 30Q531 30 597 62T707 148T771 269T792 409Q792 481 771 548T707 669T598 754T439 786Q347 786 280 755T170 669T107 548T86 409Q86 337 106 270T170 148T280 62T439 30Z"></glyph><glyph unicode="ª" d="M174 317Q124 317 95 349T66 433Q66 474 84 503T132 551T200 585T277 612V666Q277 692 270 711T241 730Q225 730 216 721T203 694T197 650L82 652Q84 734 127 777T248 821Q303 821 336 800T383 740T397 647V324H290L285 390Q271 360 244 339T174 317ZM224 406Q241 406 255 416T277 442V563Q251 551 230 535T196 499T183 456Q183 432 195 419T224 406Z"></glyph><glyph unicode="«" d="M420 39L239 270V324L420 555V410L328 297L420 184V39ZM215 39L34 270V324L215 555V410L122 297L215 184V39Z"></glyph><glyph unicode="¬" d="M339 230V365H43V461H407V230H339Z"></glyph><glyph unicode="­" d="M62 360V453H302V360H62Z"></glyph><glyph unicode="®" d="M445 -14Q339 -14 264 22T140 120T70 255T47 404Q47 480 69 554T140 688T263 785T445 822Q551 822 626 786T750 689T820 554T843 404Q843 329 821 255T751 120T628 23T445 -14ZM445 38Q533 38 597 69T702 152T763 270T783 404Q783 473 763 538T702 656T597 738T445 769Q356 769 292 739T187 656T125 539T105 405Q105 336 125 271T186 153T292 69T445 38ZM284 149V667H445Q504 667 543 652T602 605T622 521Q622 473 603 443T543 394L635 149H517L441 372H397V149H284ZM397 430H424Q476 430 494 451T512 517Q512 555 496 576T441 597H397V430Z"></glyph><glyph unicode="¯" d="M52 739V810H276V739H52Z"></glyph><glyph unicode="°" d="M248 452Q193 452 151 474T87 538T64 636Q64 693 86 733T151 796T248 819Q305 819 346 797T411 734T435 636Q435 579 412 538T347 475T248 452ZM248 532Q293 532 317 561T341 636Q341 682 317 710T248 739Q205 739 181 711T156 636Q156 590 180 561T248 532Z"></glyph><glyph unicode="±" d="M168 180V289H61V379H168V487H261V379H367V289H261V180H168ZM61 0V91H367V0H61Z"></glyph><glyph unicode="²" d="M79 433V504L198 629Q228 660 246 682T271 721T279 757Q279 784 268 797T232 811Q201 811 189 788T177 722H78V737Q78 782 93 818T143 876T234 898Q302 898 341 861T380 759Q380 708 357 671T288 588L218 517H385V433H79Z"></glyph><glyph unicode="³" d="M229 423Q174 423 141 440T94 488T79 559V575H178V571Q178 540 190 525T231 510Q255 510 267 524T279 566Q279 596 266 611T220 627H194V697H217Q247 697 260 711T274 756Q274 781 263 796T228 811Q201 811 190 795T178 750V746H79V762Q79 829 119 863T229 898Q296 898 335 867T375 775Q375 732 356 705T309 667Q337 658 358 634T379 557Q379 492 339 458T229 423Z"></glyph><glyph unicode="´" d="M55 610L115 810H253L134 610H55Z"></glyph><glyph unicode="µ" d="M46 -181L45 578H181V145Q181 119 189 105T220 91Q234 91 249 98T281 118V578H416V0H281V51Q265 35 247 22T209 3Q202 1 195 0T183 -2V-181H46Z"></glyph><glyph unicode="¶" d="M193 -96V502Q123 503 79 542T34 656Q34 712 58 746T126 795T223 810H441V-96H358V737H279V-96H193Z"></glyph><glyph unicode="·" d="M37 311V442H168V311H37Z"></glyph><glyph unicode="¸" d="M144 -257Q126 -257 108 -254T72 -246V-183Q84 -187 98 -189T126 -191Q152 -191 170 -183T188 -154Q188 -135 176 -125T143 -108T99 -100V0H156V-61Q212 -61 246 -85T280 -156Q280 -192 262 -214T212 -246T144 -257Z"></glyph><glyph unicode="¹" d="M164 433V770L72 734V822L203 888H265V433H164Z"></glyph><glyph unicode="º" d="M232 316Q176 316 140 336T86 394T68 487V651Q68 733 108 777T232 822Q312 822 354 777T396 651V487Q396 434 377 396T322 337T232 316ZM231 405Q254 405 264 416T277 448T281 493V645Q281 671 278 690T264 721T231 733Q209 733 198 722T183 690T179 645V493Q179 469 183 449T198 417T231 405Z"></glyph><glyph unicode="»" d="M51 39V184L149 298L51 410V555L237 324V270L51 39ZM257 39V184L354 298L257 410V555L443 324V270L257 39Z"></glyph><glyph unicode="¼" d="M410 611V948L318 912V1000L449 1066H511V611H410ZM192 0L571 810H665L286 0H192ZM651 0V104H477V171L670 455H752V173H796V104H752V0H651ZM558 173H651L650 312L558 173Z"></glyph><glyph unicode="½" d="M389 611V948L297 912V1000L428 1066H490V611H389ZM171 0L550 810H644L265 0H171ZM540 0V71L659 196Q689 227 707 249T732 288T740 324Q740 351 729 364T693 378Q662 378 650 355T638 289H539V304Q539 349 554 385T604 443T695 465Q763 465 802 428T841 326Q841 275 818 238T749 155L679 84H846V0H540Z"></glyph><glyph unicode="¾" d="M465 600Q410 600 377 617T330 665T315 736V752H414V748Q414 717 426 702T467 687Q491 687 503 701T515 743Q515 773 502 788T456 804H430V874H453Q483 874 496 888T510 933Q510 958 499 973T464 988Q437 988 426 972T414 927V923H315V939Q315 1006 355 1040T465 1075Q532 1075 571 1044T611 952Q611 909 592 882T545 844Q573 835 594 811T615 734Q615 669 575 635T465 600ZM254 0L633 810H727L348 0H254ZM714 0V104H540V171L733 455H815V173H859V104H815V0H714ZM621 173H714L713 312L621 173Z"></glyph><glyph unicode="¿" d="M345 427V300Q297 262 259 218T199 126T176 22Q176 -20 195 -43T250 -67Q282 -67 300 -49T318 0Q318 14 316 27T309 53L433 79Q439 60 443 41T447 0Q447 -83 396 -133T248 -184Q151 -184 97 -130T42 21Q42 85 64 138T127 239T222 330V427H345ZM350 635V502H216V635H350Z"></glyph><glyph unicode="À" d="M20 0L182 810H340L502 0H365L333 187H192L159 0H20ZM207 281H317L262 621L207 281ZM224 866L105 1066H243L302 866H224Z"></glyph><glyph unicode="Á" d="M20 0L182 810H340L502 0H365L333 187H192L159 0H20ZM207 281H317L262 621L207 281ZM220 866L281 1066H418L299 866H220Z"></glyph><glyph unicode="Â" d="M20 0L182 810H340L502 0H365L333 187H192L159 0H20ZM207 281H317L262 621L207 281ZM109 874L199 1058H321L413 874H312L260 994L209 874H109Z"></glyph><glyph unicode="Ã" d="M20 0L182 810H340L502 0H365L333 187H192L159 0H20ZM207 281H317L262 621L207 281ZM340 915Q313 915 292 927T252 951T212 963Q192 963 185 953T177 922H107Q107 958 114 986T141 1031T192 1048Q217 1048 237 1037T276 1014T317 1002Q334 1002 341 1012T349 1042H415Q415 1011 410 982T389 934T340 915Z"></glyph><glyph unicode="Ä" d="M20 0L182 810H340L502 0H365L333 187H192L159 0H20ZM207 281H317L262 621L207 281ZM299 912V1042H419V912H299ZM103 912V1042H223V912H103Z"></glyph><glyph unicode="Å" d="M20 0L182 810H340L502 0H365L333 187H192L159 0H20ZM207 281H317L262 621L207 281ZM260 841Q212 841 179 870T146 952Q146 1005 179 1033T260 1062Q309 1062 342 1033T376 952Q376 899 343 870T260 841ZM260 897Q286 897 300 912T314 952Q314 977 300 992T260 1007Q235 1007 221 992T207 952Q207 928 221 913T260 897Z"></glyph><glyph unicode="Æ" d="M-31 0L316 804H648V701H461V471H594V367H461V102H648V0H330V186H190L113 0H-31ZM224 283H330V568L224 283Z"></glyph><glyph unicode="Ç" d="M279 -11Q190 -11 140 24T69 119T49 259V548Q49 631 69 692T139 786T279 819Q363 819 410 791T478 709T498 586V518H356V588Q356 622 353 650T334 694T280 711Q242 711 225 694T202 647T197 580V228Q197 184 204 156T229 113T280 98Q317 98 332 115T352 162T356 227V300H498V235Q498 163 479 108T413 21T279 -11ZM287 -257Q269 -257 251 -254T215 -246V-183Q227 -187 241 -189T269 -191Q295 -191 313 -183T331 -154Q331 -135 319 -125T286 -108T242 -100V0H299V-61Q355 -61 389 -85T423 -156Q423 -192 405 -214T355 -246T287 -257Z"></glyph><glyph unicode="È" d="M61 0V810H401V706H209V473H360V370H209V102H403V0H61ZM197 866L78 1066H216L275 866H197Z"></glyph><glyph unicode="É" d="M61 0V810H401V706H209V473H360V370H209V102H403V0H61ZM193 866L254 1066H391L272 866H193Z"></glyph><glyph unicode="Ê" d="M61 0V810H401V706H209V473H360V370H209V102H403V0H61ZM82 874L172 1058H294L386 874H285L233 994L182 874H82Z"></glyph><glyph unicode="Ë" d="M61 0V810H401V706H209V473H360V370H209V102H403V0H61ZM272 912V1042H392V912H272ZM76 912V1042H196V912H76Z"></glyph><glyph unicode="Ì" d="M65 0V810H211V0H65ZM100 866L-19 1066H119L178 866H100Z"></glyph><glyph unicode="Í" d="M65 0V810H211V0H65ZM96 866L157 1066H294L175 866H96Z"></glyph><glyph unicode="Î" d="M65 0V810H211V0H65ZM-15 874L75 1058H197L289 874H188L136 994L85 874H-15Z"></glyph><glyph unicode="Ï" d="M65 0V810H211V0H65ZM175 912V1042H295V912H175ZM-21 912V1042H99V912H-21Z"></glyph><glyph unicode="Ð" d="M57 0V379H10V456H57V810H248Q347 810 402 783T481 700T505 558V262Q505 174 482 116T404 29T254 0H57ZM204 103H250Q301 103 323 121T350 173T355 258V568Q355 617 349 647T320 691T248 705H204V456H255V379H204V103Z"></glyph><glyph unicode="Ñ" d="M61 0V810H164L361 348V810H483V0H385L187 484V0H61ZM351 915Q324 915 303 927T263 951T223 963Q203 963 196 953T188 922H118Q118 958 125 986T152 1031T203 1048Q228 1048 248 1037T287 1014T328 1002Q345 1002 352 1012T360 1042H426Q426 1011 421 982T400 934T351 915Z"></glyph><glyph unicode="Ò" d="M281 -11Q195 -11 144 21T71 113T49 255V558Q49 640 71 698T144 788T281 819Q369 819 419 788T492 699T515 558V254Q515 173 493 114T420 22T281 -11ZM281 98Q318 98 335 114T359 158T365 219V592Q365 626 359 653T336 695T281 711Q246 711 228 696T204 653T198 592V219Q198 186 203 158T227 114T281 98ZM245 866L126 1066H264L323 866H245Z"></glyph><glyph unicode="Ó" d="M281 -11Q195 -11 144 21T71 113T49 255V558Q49 640 71 698T144 788T281 819Q369 819 419 788T492 699T515 558V254Q515 173 493 114T420 22T281 -11ZM281 98Q318 98 335 114T359 158T365 219V592Q365 626 359 653T336 695T281 711Q246 711 228 696T204 653T198 592V219Q198 186 203 158T227 114T281 98ZM241 866L302 1066H439L320 866H241Z"></glyph><glyph unicode="Ô" d="M281 -11Q195 -11 144 21T71 113T49 255V558Q49 640 71 698T144 788T281 819Q369 819 419 788T492 699T515 558V254Q515 173 493 114T420 22T281 -11ZM281 98Q318 98 335 114T359 158T365 219V592Q365 626 359 653T336 695T281 711Q246 711 228 696T204 653T198 592V219Q198 186 203 158T227 114T281 98ZM130 874L220 1058H342L434 874H333L281 994L230 874H130Z"></glyph><glyph unicode="Õ" d="M281 -11Q195 -11 144 21T71 113T49 255V558Q49 640 71 698T144 788T281 819Q369 819 419 788T492 699T515 558V254Q515 173 493 114T420 22T281 -11ZM281 98Q318 98 335 114T359 158T365 219V592Q365 626 359 653T336 695T281 711Q246 711 228 696T204 653T198 592V219Q198 186 203 158T227 114T281 98ZM361 915Q334 915 313 927T273 951T233 963Q213 963 206 953T198 922H128Q128 958 135 986T162 1031T213 1048Q238 1048 258 1037T297 1014T338 1002Q355 1002 362 1012T370 1042H436Q436 1011 431 982T410 934T361 915Z"></glyph><glyph unicode="Ö" d="M281 -11Q195 -11 144 21T71 113T49 255V558Q49 640 71 698T144 788T281 819Q369 819 419 788T492 699T515 558V254Q515 173 493 114T420 22T281 -11ZM281 98Q318 98 335 114T359 158T365 219V592Q365 626 359 653T336 695T281 711Q246 711 228 696T204 653T198 592V219Q198 186 203 158T227 114T281 98ZM320 912V1042H440V912H320ZM124 912V1042H244V912H124Z"></glyph><glyph unicode="×" d="M116 240L52 304L155 407L52 509L116 574L218 471L320 574L385 510L282 407L385 304L321 240L218 342L116 240Z"></glyph><glyph unicode="Ø" d="M139 -82L100 -68L408 882L448 869L139 -82ZM281 -11Q195 -11 144 21T71 113T49 255V558Q49 640 71 698T144 788T281 819Q369 819 419 788T492 699T515 558V254Q515 173 493 114T420 22T281 -11ZM281 98Q318 98 335 114T359 158T365 219V592Q365 626 359 653T336 695T281 711Q246 711 228 696T204 653T198 592V219Q198 186 203 158T227 114T281 98Z"></glyph><glyph unicode="Ù" d="M283 -11Q193 -11 143 22T74 116T55 262V810H199V245Q199 207 204 174T227 120T283 99Q322 99 339 119T362 173T368 245V810H511V262Q511 177 492 116T424 22T283 -11ZM246 866L127 1066H265L324 866H246Z"></glyph><glyph unicode="Ú" d="M283 -11Q193 -11 143 22T74 116T55 262V810H199V245Q199 207 204 174T227 120T283 99Q322 99 339 119T362 173T368 245V810H511V262Q511 177 492 116T424 22T283 -11ZM242 866L303 1066H440L321 866H242Z"></glyph><glyph unicode="Û" d="M283 -11Q193 -11 143 22T74 116T55 262V810H199V245Q199 207 204 174T227 120T283 99Q322 99 339 119T362 173T368 245V810H511V262Q511 177 492 116T424 22T283 -11ZM131 874L221 1058H343L435 874H334L282 994L231 874H131Z"></glyph><glyph unicode="Ü" d="M283 -11Q193 -11 143 22T74 116T55 262V810H199V245Q199 207 204 174T227 120T283 99Q322 99 339 119T362 173T368 245V810H511V262Q511 177 492 116T424 22T283 -11ZM321 912V1042H441V912H321ZM125 912V1042H245V912H125Z"></glyph><glyph unicode="Ý" d="M174 0V309L10 810H148L248 489L342 810H477L315 309V0H174ZM203 866L264 1066H401L282 866H203Z"></glyph><glyph unicode="Þ" d="M57 0V810H204V703H301Q375 703 423 678T494 601T517 473Q517 408 503 363T461 289T390 247T287 234H204V0H57ZM204 343H268Q327 343 353 370T380 468Q380 534 356 562T276 591H204V343Z"></glyph><glyph unicode="ß" d="M239 -12V95Q272 95 294 103T330 128T348 170T354 231Q354 271 343 300T308 346T248 363V470Q277 470 295 488T321 537T330 606Q330 657 315 688T257 720Q230 720 215 706T194 667T188 605V0H52V605Q52 665 72 713T136 791T249 821Q353 821 402 765T452 607Q452 543 426 499T343 429Q392 416 424 388T472 318T489 221Q489 162 474 118T427 45T349 2T239 -12Z"></glyph><glyph unicode="à" d="M164 -9Q125 -9 97 11T54 63T39 129Q39 183 59 220T112 282T187 325T272 359V409Q272 434 269 451T256 477T226 486Q209 486 199 478T184 456T178 422L176 387L47 392Q50 492 96 539T238 587Q325 587 364 539T404 409V142Q404 110 405 84T409 37T414 0H292Q289 20 285 45T278 83Q268 48 240 20T164 -9ZM214 92Q227 92 238 98T259 114T272 130V291Q250 278 231 265T197 237T175 203T167 161Q167 129 179 111T214 92ZM200 634L81 834H219L278 634H200Z"></glyph><glyph unicode="á" d="M164 -9Q125 -9 97 11T54 63T39 129Q39 183 59 220T112 282T187 325T272 359V409Q272 434 269 451T256 477T226 486Q209 486 199 478T184 456T178 422L176 387L47 392Q50 492 96 539T238 587Q325 587 364 539T404 409V142Q404 110 405 84T409 37T414 0H292Q289 20 285 45T278 83Q268 48 240 20T164 -9ZM214 92Q227 92 238 98T259 114T272 130V291Q250 278 231 265T197 237T175 203T167 161Q167 129 179 111T214 92ZM196 634L257 834H394L275 634H196Z"></glyph><glyph unicode="â" d="M164 -9Q125 -9 97 11T54 63T39 129Q39 183 59 220T112 282T187 325T272 359V409Q272 434 269 451T256 477T226 486Q209 486 199 478T184 456T178 422L176 387L47 392Q50 492 96 539T238 587Q325 587 364 539T404 409V142Q404 110 405 84T409 37T414 0H292Q289 20 285 45T278 83Q268 48 240 20T164 -9ZM214 92Q227 92 238 98T259 114T272 130V291Q250 278 231 265T197 237T175 203T167 161Q167 129 179 111T214 92ZM85 642L175 826H297L389 642H288L236 762L185 642H85Z"></glyph><glyph unicode="ã" d="M164 -9Q125 -9 97 11T54 63T39 129Q39 183 59 220T112 282T187 325T272 359V409Q272 434 269 451T256 477T226 486Q209 486 199 478T184 456T178 422L176 387L47 392Q50 492 96 539T238 587Q325 587 364 539T404 409V142Q404 110 405 84T409 37T414 0H292Q289 20 285 45T278 83Q268 48 240 20T164 -9ZM214 92Q227 92 238 98T259 114T272 130V291Q250 278 231 265T197 237T175 203T167 161Q167 129 179 111T214 92ZM316 683Q289 683 268 695T228 719T188 731Q168 731 161 721T153 690H83Q83 726 90 754T117 799T168 816Q193 816 213 805T252 782T293 770Q310 770 317 780T325 810H391Q391 779 386 750T365 702T316 683Z"></glyph><glyph unicode="ä" d="M164 -9Q125 -9 97 11T54 63T39 129Q39 183 59 220T112 282T187 325T272 359V409Q272 434 269 451T256 477T226 486Q209 486 199 478T184 456T178 422L176 387L47 392Q50 492 96 539T238 587Q325 587 364 539T404 409V142Q404 110 405 84T409 37T414 0H292Q289 20 285 45T278 83Q268 48 240 20T164 -9ZM214 92Q227 92 238 98T259 114T272 130V291Q250 278 231 265T197 237T175 203T167 161Q167 129 179 111T214 92ZM275 680V810H395V680H275ZM79 680V810H199V680H79Z"></glyph><glyph unicode="å" d="M164 -9Q125 -9 97 11T54 63T39 129Q39 183 59 220T112 282T187 325T272 359V409Q272 434 269 451T256 477T226 486Q209 486 199 478T184 456T178 422L176 387L47 392Q50 492 96 539T238 587Q325 587 364 539T404 409V142Q404 110 405 84T409 37T414 0H292Q289 20 285 45T278 83Q268 48 240 20T164 -9ZM214 92Q227 92 238 98T259 114T272 130V291Q250 278 231 265T197 237T175 203T167 161Q167 129 179 111T214 92ZM236 609Q188 609 155 638T122 720Q122 773 155 801T236 830Q285 830 318 801T352 720Q352 667 319 638T236 609ZM236 665Q262 665 276 680T290 720Q290 745 276 760T236 775Q211 775 197 760T183 720Q183 696 197 681T236 665Z"></glyph><glyph unicode="æ" d="M185 -10Q115 -10 77 28T39 130Q39 185 60 220T119 277T203 311L271 328V406Q271 445 262 465T224 485Q207 485 196 476T179 446T174 395L41 398Q41 487 85 537T216 587Q273 587 305 560T343 495H327Q331 521 350 541T402 574T472 587Q548 587 585 549T622 451Q622 399 602 369T547 323T472 297L403 282V162Q403 131 411 111T448 91Q467 91 476 101T489 129T493 170V202H622V166Q622 110 605 71T552 11T463 -10Q426 -10 397 2T350 39T325 96Q315 63 295 39T248 3T185 -10ZM216 87Q235 87 246 95T264 121T271 165V261L233 247Q210 238 195 225T172 195T164 154Q164 134 169 119T186 96T216 87ZM403 348L438 356Q472 364 488 380T505 430Q505 453 494 468T456 484Q436 484 425 475T408 448T403 406V348Z"></glyph><glyph unicode="ç" d="M226 -9Q159 -9 119 16T60 89T41 202V376Q41 443 59 490T119 562T226 587Q288 587 327 568T385 509T403 409V361H275V412Q275 442 271 459T255 484T226 492Q208 492 197 483T182 452T177 394V182Q177 126 189 107T227 87Q247 87 257 96T271 122T275 165V227H403V172Q403 114 385 73T327 12T226 -9ZM238 -257Q220 -257 202 -254T166 -246V-183Q178 -187 192 -189T220 -191Q246 -191 264 -183T282 -154Q282 -135 270 -125T237 -108T193 -100V0H250V-61Q306 -61 340 -85T374 -156Q374 -192 356 -214T306 -246T238 -257Z"></glyph><glyph unicode="è" d="M227 -9Q162 -9 121 15T61 87T41 202V376Q41 445 60 492T121 563T227 587Q296 587 334 561T389 486T406 365V283H176V169Q176 141 181 123T199 97T228 89Q246 89 257 97T273 122T278 164V212H405V173Q405 85 361 38T227 -9ZM176 350H278V405Q278 435 273 453T257 480T226 489Q208 489 197 480T181 450T176 390V350ZM188 634L69 834H207L266 634H188Z"></glyph><glyph unicode="é" d="M227 -9Q162 -9 121 15T61 87T41 202V376Q41 445 60 492T121 563T227 587Q296 587 334 561T389 486T406 365V283H176V169Q176 141 181 123T199 97T228 89Q246 89 257 97T273 122T278 164V212H405V173Q405 85 361 38T227 -9ZM176 350H278V405Q278 435 273 453T257 480T226 489Q208 489 197 480T181 450T176 390V350ZM184 634L245 834H382L263 634H184Z"></glyph><glyph unicode="ê" d="M227 -9Q162 -9 121 15T61 87T41 202V376Q41 445 60 492T121 563T227 587Q296 587 334 561T389 486T406 365V283H176V169Q176 141 181 123T199 97T228 89Q246 89 257 97T273 122T278 164V212H405V173Q405 85 361 38T227 -9ZM176 350H278V405Q278 435 273 453T257 480T226 489Q208 489 197 480T181 450T176 390V350ZM73 642L163 826H285L377 642H276L224 762L173 642H73Z"></glyph><glyph unicode="ë" d="M227 -9Q162 -9 121 15T61 87T41 202V376Q41 445 60 492T121 563T227 587Q296 587 334 561T389 486T406 365V283H176V169Q176 141 181 123T199 97T228 89Q246 89 257 97T273 122T278 164V212H405V173Q405 85 361 38T227 -9ZM176 350H278V405Q278 435 273 453T257 480T226 489Q208 489 197 480T181 450T176 390V350ZM263 680V810H383V680H263ZM67 680V810H187V680H67Z"></glyph><glyph unicode="ì" d="M60 0V578H196V0H60ZM91 634L-28 834H110L169 634H91Z"></glyph><glyph unicode="í" d="M60 0V578H196V0H60ZM87 634L148 834H285L166 634H87Z"></glyph><glyph unicode="î" d="M60 0V578H196V0H60ZM-24 642L66 826H188L280 642H179L127 762L76 642H-24Z"></glyph><glyph unicode="ï" d="M60 0V578H196V0H60ZM166 680V810H286V680H166ZM-30 680V810H90V680H-30Z"></glyph><glyph unicode="ð" d="M250 -12Q190 -12 146 14T78 91T53 218V337Q53 405 71 457T126 540T220 570Q249 570 270 562T306 543Q304 582 296 614T277 664L174 623L165 670L249 704Q234 723 201 734T107 745L113 832Q205 831 261 812T350 751L451 792L460 745L378 712Q396 677 410 635T434 539T443 411V226Q443 143 421 91T355 14T250 -12ZM252 85Q274 85 286 99T302 137T307 195Q307 227 307 259T307 323T307 387T307 451Q297 459 284 466T253 473Q227 473 213 455T193 396T187 287Q187 217 190 172T208 106T252 85Z"></glyph><glyph unicode="ñ" d="M52 0V578H188V520Q219 550 253 568T328 587Q364 587 385 570T416 523T426 460V0H290V433Q290 459 282 473T251 487Q237 487 221 479T188 459V0H52ZM317 683Q290 683 269 695T229 719T189 731Q169 731 162 721T154 690H84Q84 726 91 754T118 799T169 816Q194 816 214 805T253 782T294 770Q311 770 318 780T326 810H392Q392 779 387 750T366 702T317 683Z"></glyph><glyph unicode="ò" d="M227 -9Q164 -9 123 14T62 83T41 192V386Q41 450 61 495T123 563T227 587Q290 587 331 564T393 495T414 386V192Q414 128 394 83T332 15T227 -9ZM228 85Q251 85 262 98T276 133T279 183V395Q279 422 276 444T262 479T228 493Q205 493 194 480T180 444T176 395V183Q176 156 179 134T194 98T228 85ZM190 634L71 834H209L268 634H190Z"></glyph><glyph unicode="ó" d="M227 -9Q164 -9 123 14T62 83T41 192V386Q41 450 61 495T123 563T227 587Q290 587 331 564T393 495T414 386V192Q414 128 394 83T332 15T227 -9ZM228 85Q251 85 262 98T276 133T279 183V395Q279 422 276 444T262 479T228 493Q205 493 194 480T180 444T176 395V183Q176 156 179 134T194 98T228 85ZM186 634L247 834H384L265 634H186Z"></glyph><glyph unicode="ô" d="M227 -9Q164 -9 123 14T62 83T41 192V386Q41 450 61 495T123 563T227 587Q290 587 331 564T393 495T414 386V192Q414 128 394 83T332 15T227 -9ZM228 85Q251 85 262 98T276 133T279 183V395Q279 422 276 444T262 479T228 493Q205 493 194 480T180 444T176 395V183Q176 156 179 134T194 98T228 85ZM75 642L165 826H287L379 642H278L226 762L175 642H75Z"></glyph><glyph unicode="õ" d="M227 -9Q164 -9 123 14T62 83T41 192V386Q41 450 61 495T123 563T227 587Q290 587 331 564T393 495T414 386V192Q414 128 394 83T332 15T227 -9ZM228 85Q251 85 262 98T276 133T279 183V395Q279 422 276 444T262 479T228 493Q205 493 194 480T180 444T176 395V183Q176 156 179 134T194 98T228 85ZM306 683Q279 683 258 695T218 719T178 731Q158 731 151 721T143 690H73Q73 726 80 754T107 799T158 816Q183 816 203 805T242 782T283 770Q300 770 307 780T315 810H381Q381 779 376 750T355 702T306 683Z"></glyph><glyph unicode="ö" d="M227 -9Q164 -9 123 14T62 83T41 192V386Q41 450 61 495T123 563T227 587Q290 587 331 564T393 495T414 386V192Q414 128 394 83T332 15T227 -9ZM228 85Q251 85 262 98T276 133T279 183V395Q279 422 276 444T262 479T228 493Q205 493 194 480T180 444T176 395V183Q176 156 179 134T194 98T228 85ZM265 680V810H385V680H265ZM69 680V810H189V680H69Z"></glyph><glyph unicode="÷" d="M27 374V456H376V374H27ZM157 175V292H250V175H157ZM157 529V646H250V529H157Z"></glyph><glyph unicode="ø" d="M100 -92L66 -78L349 671L387 657L100 -92ZM227 -9Q164 -9 123 14T62 83T41 192V386Q41 450 61 495T123 563T227 587Q290 587 331 564T393 495T414 386V192Q414 128 394 83T332 15T227 -9ZM228 85Q251 85 262 98T276 133T279 183V395Q279 422 276 444T262 479T228 493Q205 493 194 480T180 444T176 395V183Q176 156 179 134T194 98T228 85Z"></glyph><glyph unicode="ù" d="M145 -9Q111 -9 89 8T57 55T47 118V578H183V143Q183 117 191 103T223 88Q238 88 253 96T284 115V578H420V0H284V55Q255 27 220 9T145 -9ZM200 634L81 834H219L278 634H200Z"></glyph><glyph unicode="ú" d="M145 -9Q111 -9 89 8T57 55T47 118V578H183V143Q183 117 191 103T223 88Q238 88 253 96T284 115V578H420V0H284V55Q255 27 220 9T145 -9ZM196 634L257 834H394L275 634H196Z"></glyph><glyph unicode="û" d="M145 -9Q111 -9 89 8T57 55T47 118V578H183V143Q183 117 191 103T223 88Q238 88 253 96T284 115V578H420V0H284V55Q255 27 220 9T145 -9ZM85 642L175 826H297L389 642H288L236 762L185 642H85Z"></glyph><glyph unicode="ü" d="M145 -9Q111 -9 89 8T57 55T47 118V578H183V143Q183 117 191 103T223 88Q238 88 253 96T284 115V578H420V0H284V55Q255 27 220 9T145 -9ZM275 680V810H395V680H275ZM79 680V810H199V680H79Z"></glyph><glyph unicode="ý" d="M56 -157V-59Q91 -59 113 -55T145 -41T155 -13Q155 0 149 28T134 89L7 578H139L214 197L279 578H410L275 -23Q264 -74 238 -103T173 -144T82 -157H56ZM169 634L230 834H367L248 634H169Z"></glyph><glyph unicode="þ" d="M50 -190V810H186V534Q211 558 240 572T304 587Q343 587 367 569T406 522T425 459T431 394V198Q431 141 418 94T375 19T297 -9Q266 -9 238 6T186 43V-190H50ZM246 86Q267 86 277 100T291 139T295 193V400Q295 427 291 448T276 483T244 496Q228 496 214 489T186 471V106Q199 97 213 92T246 86Z"></glyph><glyph unicode="ÿ" d="M56 -157V-59Q91 -59 113 -55T145 -41T155 -13Q155 0 149 28T134 89L7 578H139L214 197L279 578H410L275 -23Q264 -74 238 -103T173 -144T82 -157H56ZM248 680V810H368V680H248ZM52 680V810H172V680H52Z"></glyph><glyph unicode="–" d="M5 259V356H492V259H5Z"></glyph><glyph unicode="—" d="M5 299V394H975V299H5Z"></glyph><glyph unicode="‘" d="M27 556Q27 583 27 609T28 660Q29 742 52 785T138 830L154 785Q119 783 108 757T96 684H158V556H27Z"></glyph><glyph unicode="’" d="M80 535L65 581Q100 582 111 608T122 682H61V810H191Q191 783 191 757T190 706Q189 624 166 581T80 535Z"></glyph><glyph unicode="‚" d="M80 -121L65 -75Q100 -74 111 -48T122 26H61V154H191Q191 127 191 101T190 50Q189 -32 166 -75T80 -121Z"></glyph><glyph unicode="“" d="M27 556Q27 583 27 609T28 660Q29 742 52 785T138 830L154 785Q119 783 108 757T96 684H158V556H27ZM218 556Q218 583 218 609T219 660Q220 742 243 785T329 830L345 785Q310 783 299 757T287 684H349V556H218Z"></glyph><glyph unicode="”" d="M80 535L65 581Q100 582 111 608T122 682H61V810H191Q191 783 191 757T190 706Q189 624 166 581T80 535ZM271 535L256 581Q291 582 302 608T313 682H252V810H382Q382 783 382 757T381 706Q380 624 357 581T271 535Z"></glyph><glyph unicode="„" d="M262 -121L247 -75Q282 -74 293 -48T304 26H243V154H373Q373 127 373 101T372 50Q371 -32 348 -75T262 -121ZM80 -121L65 -75Q100 -74 111 -48T122 26H61V154H191Q191 127 191 101T190 50Q189 -32 166 -75T80 -121Z"></glyph><glyph unicode="•" d="M210 229Q170 229 137 246T83 298T63 380Q63 430 83 464T136 515T210 533Q252 533 285 516T338 464T358 380Q358 332 338 298T285 247T210 229Z"></glyph><glyph unicode="‹" d="M243 31L40 255V324L243 548V402L131 290L243 177V31Z"></glyph><glyph unicode="›" d="M50 64V209L164 322L50 434V580L252 349V295L50 64Z"></glyph></font>
</defs>
</svg>
