<?xml version="1.0" encoding="UTF-8" standalone="no"?> <svg xmlns="http://www.w3.org/2000/svg"><defs><font id="Oswald"><glyph unicode=" "></glyph><glyph unicode="!" d="M87 174L62 810H140L113 174H87ZM61 0V88H139V0H61Z"></glyph><glyph unicode="&quot;" d="M19 573V810H90L59 573H19ZM141 573V810H211L181 573H141Z"></glyph><glyph unicode="#" d="M53 0L97 291H41V346H106L128 487H53V542H136L178 810H249L208 542H307L348 810H419L378 542H429V487H370L347 346H416V291H339L294 0H223L268 291H169L124 0H53ZM177 346H276L298 487H199L177 346Z"></glyph><glyph unicode="$" d="M238 -88V-9Q140 -7 94 53T41 210L108 230Q113 180 126 140T167 76T244 52Q298 52 328 80T358 169Q358 223 332 262T259 344L116 481Q91 506 75 531T50 585T42 644Q42 725 89 770T214 818V902H246V818Q285 815 315 803T368 766T402 704T419 613L354 596Q350 647 338 683T299 740T225 758Q175 756 143 731T111 651Q111 618 124 591T168 533L311 398Q343 368 369 334T412 260T429 174Q429 118 409 79T353 18T269 -8V-88H238Z"></glyph><glyph unicode="%" d="M206 0L463 817H527L272 0H206ZM163 403Q96 403 68 446T40 559V672Q40 743 68 784T163 825Q230 825 257 785T285 674V558Q285 488 258 446T163 403ZM163 460Q185 460 197 472T214 507T219 556V675Q219 716 208 742T163 768Q129 768 118 742T107 674V556Q107 528 112 507T129 473T163 460ZM569 -6Q502 -6 475 37T447 150V262Q447 333 474 374T569 415Q637 415 664 375T692 264V148Q692 78 665 36T569 -6ZM569 50Q592 50 604 63T620 97T625 147V265Q625 306 614 332T569 359Q535 359 524 333T513 265V147Q513 119 518 98T535 63T569 50Z"></glyph><glyph unicode="&amp;" d="M244 -10Q182 -10 141 15T78 82T57 174Q57 238 88 294T187 415Q159 463 138 501T104 574T92 647Q92 701 113 739T172 798T264 818Q314 818 351 801T408 752T429 674Q429 628 406 584T345 496T260 410L416 164Q434 189 447 223T469 294T479 359H550Q550 323 539 279T507 192T460 117Q482 89 504 77T552 65V-7Q547 -7 542 -7T533 -5Q509 -3 488 7T450 34T416 69Q388 37 345 14T244 -10ZM244 51Q284 51 315 68T374 117L216 363Q170 311 151 266T131 174Q131 145 141 117T176 70T244 51ZM234 452Q266 484 294 520T339 596T357 675Q357 715 331 736T262 757Q211 757 188 725T164 648Q164 602 182 557T234 452Z"></glyph><glyph unicode="'" d="M19 573V810H90L59 573H19Z"></glyph><glyph unicode="(" d="M247 -165Q198 -162 166 -135T117 -63T91 43T81 175T79 325Q79 403 80 475T90 609T116 716T166 788T247 816V764Q211 761 191 725T162 627T152 489T150 325Q150 239 151 161T161 23T190 -74T247 -114V-165Z"></glyph><glyph unicode=")" d="M30 -165V-114Q68 -110 88 -74T116 24T126 162T128 326Q128 412 127 490T117 628T88 724T30 765V816Q80 815 112 789T162 717T188 610T198 477T200 326Q200 248 199 177T189 44T162 -62T112 -135T30 -165Z"></glyph><glyph unicode="*" d="M118 483L73 511L160 628L35 677L54 725L174 665L166 809H223L213 665L333 725L351 677L227 628L314 510L269 483L193 610L118 483Z"></glyph><glyph unicode="+" d="M163 230V388H23V444H163V600H218V444H359V388H218V230H163Z"></glyph><glyph unicode="," d="M65 -116L49 -84Q76 -69 86 -50T97 0H54V109H135V8Q135 -41 119 -69T65 -116Z"></glyph><glyph unicode="-" d="M43 297V355H255V297H43Z"></glyph><glyph unicode="." d="M60 0V110H137V0H60Z"></glyph><glyph unicode="/" d="M24 0L255 810H319L89 0H24Z"></glyph><glyph unicode="0" d="M258 -10Q186 -10 144 21T84 106T66 229V581Q66 651 84 704T145 788T258 818Q330 818 372 788T433 705T452 581V229Q452 159 434 105T373 21T258 -10ZM258 48Q305 48 330 72T366 135T377 223V586Q377 635 367 674T331 737T258 760Q212 760 187 737T151 675T140 586V223Q140 175 150 136T187 72T258 48Z"></glyph><glyph unicode="1" d="M168 0V712Q162 703 144 694T105 678T66 666T43 659V718Q57 722 76 730T114 749T151 776T183 810H242V0H168Z"></glyph><glyph unicode="2" d="M49 0V54L267 388Q291 425 312 459T346 532T360 618Q360 683 334 720T252 757Q203 757 176 735T139 675T128 588V570H55V590Q55 665 75 715T137 792T249 818Q341 818 387 764T433 612Q433 563 419 522T383 444T337 368L135 62H416V0H49Z"></glyph><glyph unicode="3" d="M238 -10Q175 -10 135 14T77 83T58 187V207H129Q129 205 129 199T129 190Q130 147 140 116T174 67T238 50Q276 50 302 66T342 121T356 220Q356 295 329 342T235 392Q233 392 225 392T215 392V462Q217 462 225 462T235 462Q300 462 328 498T356 616Q356 679 333 719T246 759Q185 759 158 725T129 618Q129 616 129 612T129 604H58V623Q58 683 76 726T137 794T245 818Q309 818 350 792T411 721T431 616Q431 531 399 485T315 426Q345 418 371 394T414 328T431 221Q431 153 412 101T350 19T238 -10Z"></glyph><glyph unicode="4" d="M294 0V237H50V311L280 810H366V303H459V237H366V0H294ZM124 303H294V713L124 303Z"></glyph><glyph unicode="5" d="M241 -9Q176 -9 137 16T79 90T61 209H134Q134 160 144 124T178 69T244 50Q290 50 314 73T347 143T356 256Q356 330 346 374T311 437T245 457Q214 457 187 440T140 390H79V810H394L393 741H144L140 460Q158 483 188 498T264 514Q324 514 360 485T413 399T429 265Q429 200 419 149T387 63T329 9T241 -9Z"></glyph><glyph unicode="6" d="M253 -10Q186 -10 145 20T85 108T66 244V567Q66 642 84 698T143 786T252 818Q313 818 353 797T413 735T434 631Q434 629 434 623T435 614H362Q362 692 338 725T255 758Q221 758 195 742T154 687T139 584V431Q157 448 191 463T269 478Q336 478 374 453T428 375T444 237Q444 163 425 107T365 21T253 -10ZM253 51Q293 51 318 68T357 124T370 223Q370 289 363 333T331 399T253 421Q229 421 207 414T167 396T139 375V235Q139 170 151 130T188 70T253 51Z"></glyph><glyph unicode="7" d="M117 0L275 751H30V810H350V774L189 0H117Z"></glyph><glyph unicode="8" d="M250 -10Q180 -10 139 18T78 98T59 217Q59 270 69 305T97 364T135 401T176 425Q127 445 97 491T67 615Q67 674 85 720T143 792T250 818Q316 818 356 792T413 719T431 613Q431 536 402 491T323 425Q343 415 364 401T401 364T429 306T440 217Q440 149 422 98T361 19T250 -10ZM250 49Q290 49 316 67T355 122T368 217Q368 267 357 304T320 365T250 391Q206 388 180 365T142 305T130 217Q130 160 143 123T183 67T250 49ZM250 458Q292 460 315 481T349 537T359 616Q359 686 333 722T250 759Q192 759 166 723T139 616Q139 573 149 538T183 481T250 458Z"></glyph><glyph unicode="9" d="M252 -10Q191 -10 150 11T89 74T67 180Q67 181 67 187T67 194H139Q139 117 164 84T253 51Q287 51 311 67T349 121T362 225V378Q347 360 315 345T232 330Q165 330 127 355T73 434T57 572Q57 647 76 702T138 787T250 818Q316 818 357 788T417 701T436 565V242Q436 168 419 111T361 22T252 -10ZM249 387Q292 387 320 402T362 434V573Q362 639 351 679T314 738T250 757Q211 757 185 739T145 682T132 586Q132 520 139 476T172 409T249 387Z"></glyph><glyph unicode=":" d="M69 423V530H147V423H69ZM69 84V190H147V84H69Z"></glyph><glyph unicode=";" d="M79 -28L64 4Q92 16 102 32T112 79H69V182H150V87Q150 38 135 11T79 -28ZM69 441V551H146V441H69Z"></glyph><glyph unicode="&lt;" d="M306 62L29 266V338L306 548V472L86 302L306 137V62Z"></glyph><glyph unicode="=" d="M51 453V511H349V453H51ZM51 285V343H349V285H51Z"></glyph><glyph unicode="&gt;" d="M57 62V137L278 307L57 472V548L335 343V271L57 62Z"></glyph><glyph unicode="?" d="M174 201V325Q235 369 275 413T336 506T356 611Q356 682 324 718T236 754Q188 754 158 728T128 656Q128 642 130 630T138 601L71 586Q64 604 61 620T57 655Q57 730 106 774T236 818Q324 818 375 763T427 609Q427 543 405 491T340 394T238 305V201H174ZM171 0V87H243V0H171Z"></glyph><glyph unicode="@" d="M453 -112Q372 -112 301 -90T176 -19T90 112T59 313Q59 440 90 533T176 688T305 779T464 809Q553 810 618 782T725 701T786 573T801 405Q799 328 780 274T729 185T663 135T592 119Q569 119 549 129T516 160T505 211Q493 175 466 146T395 116Q351 114 320 135T272 196T255 291Q255 355 273 412T324 512T398 580T486 605Q499 605 511 602T535 593T556 580L565 599H619L569 252Q566 227 566 207T574 176T602 164Q625 164 648 177T693 218T728 291T744 400Q748 492 731 559T677 669T586 732T460 752Q388 751 327 722T221 637T151 500T126 315Q126 226 144 162T195 56T269 -10T360 -45T458 -55Q492 -55 524 -52T586 -43T642 -30L658 -83Q605 -96 552 -104T453 -112ZM406 172Q437 174 464 202T507 283L543 536Q532 543 520 546T496 549Q454 549 415 517T350 426T325 290Q325 247 335 220T365 182T406 172Z"></glyph><glyph unicode="A" d="M27 0L198 810H278L450 0H375L335 217H142L101 0H27ZM153 272H325L239 709L153 272Z"></glyph><glyph unicode="B" d="M71 0V810H245Q300 810 338 796T399 755T432 691T443 608Q443 569 434 533T402 471T340 437Q387 424 414 393T451 320T462 234Q462 186 454 144T424 69T365 19T271 0H71ZM147 57H256Q335 57 361 100T388 234Q388 283 376 321T336 380T258 402H147V57ZM147 461H257Q304 461 329 479T364 530T374 608Q374 657 361 689T314 736T219 751H147V461Z"></glyph><glyph unicode="C" d="M259 -10Q177 -10 133 24T71 115T54 243V565Q54 640 71 697T134 786T259 818Q332 818 373 790T433 711T451 588V539H379V586Q379 639 371 677T336 736T260 757Q205 757 178 735T141 671T131 576V231Q131 171 142 131T182 71T260 51Q311 51 336 73T370 134T379 227V280H451V232Q451 161 435 107T377 21T259 -10Z"></glyph><glyph unicode="D" d="M71 0V810H247Q332 810 379 781T447 697T467 572V250Q467 175 447 119T381 31T254 0H71ZM147 57H249Q313 57 343 83T381 156T389 262V564Q389 625 379 666T338 729T246 751H147V57Z"></glyph><glyph unicode="E" d="M70 0V810H363V751H147V447H323V391H147V57H365V0H70Z"></glyph><glyph unicode="F" d="M71 0V810H362V753H147V448H326V392H147V0H71Z"></glyph><glyph unicode="G" d="M254 -11Q177 -11 134 21T72 111T54 247V563Q54 641 71 698T133 786T259 818Q332 818 374 791T436 712T455 585V557H383V585Q383 643 373 681T336 738T260 757Q204 757 176 733T140 667T131 571V238Q131 179 141 138T180 74T261 51Q312 51 339 73T377 138T388 240V335H268V392H458V0H409L400 92Q385 46 351 18T254 -11Z"></glyph><glyph unicode="H" d="M70 0V810H147V451H402V810H478V0H402V394H147V0H70Z"></glyph><glyph unicode="I" d="M73 0V810H149V0H73Z"></glyph><glyph unicode="J" d="M8 -35V22Q50 22 74 27T111 48T128 91T132 163V810H208V159Q208 92 196 49T149 -14T45 -35H8Z"></glyph><glyph unicode="K" d="M70 0V810H147V382L363 810H436L270 462L472 0H397L219 405L147 273V0H70Z"></glyph><glyph unicode="L" d="M71 0V810H147V57H377V0H71Z"></glyph><glyph unicode="M" d="M64 0L84 810H160L320 107L483 810H559L579 0H516L500 645L345 0H296L143 644L127 0H64Z"></glyph><glyph unicode="N" d="M71 0V810H126L384 181V810H450V0H396L137 636V0H71Z"></glyph><glyph unicode="O" d="M263 -10Q182 -10 137 21T73 109T54 239V575Q54 649 73 703T138 788T263 818Q341 818 386 788T451 704T470 575V238Q470 165 452 110T388 22T263 -10ZM263 51Q316 51 344 72T382 132T393 222V589Q393 640 383 678T344 736T263 757Q209 757 181 737T142 678T131 589V222Q131 171 141 133T180 73T263 51Z"></glyph><glyph unicode="P" d="M71 0V810H265Q338 810 380 783T439 708T457 595Q457 538 439 490T378 412T266 383H147V0H71ZM147 440H244Q293 440 323 454T368 503T382 595Q382 657 370 691T329 739T245 753H147V440Z"></glyph><glyph unicode="Q" d="M431 -159Q409 -147 385 -124T337 -71T290 -9Q284 -10 278 -10T264 -10Q184 -10 139 21T74 109T54 239V575Q54 649 74 703T140 788T264 818Q343 818 389 788T455 704T475 575V238Q475 180 463 133T424 52T348 3Q361 -13 377 -32T411 -69T441 -95L431 -159ZM264 51Q318 51 347 72T387 132T398 222V589Q398 640 387 678T348 736T264 757Q211 757 183 737T143 678T131 589V222Q131 171 142 133T182 73T264 51Z"></glyph><glyph unicode="R" d="M71 0V810H254Q330 810 373 786T436 715T455 604Q455 559 445 519T411 451T343 414L467 0H393L274 398H147V0H71ZM147 454H250Q301 454 329 471T369 521T381 604Q381 679 355 716T252 753H147V454Z"></glyph><glyph unicode="S" d="M243 -10Q177 -10 134 17T68 94T41 210L108 230Q113 180 126 140T167 76T244 52Q298 52 328 80T358 169Q358 223 332 262T259 344L116 481Q78 518 60 557T42 644Q42 728 92 773T225 818Q268 818 302 807T361 772T400 708T419 613L354 596Q350 647 338 683T299 739T225 758Q175 758 143 732T111 651Q111 618 123 591T168 533L311 398Q359 353 394 298T429 174Q429 113 406 72T340 11T243 -10Z"></glyph><glyph unicode="T" d="M171 0V751H18V810H396V751H247V0H171Z"></glyph><glyph unicode="U" d="M269 -10Q187 -10 142 19T79 101T62 221V810H136V219Q136 172 146 134T186 73T269 51Q321 51 350 73T390 134T402 219V810H475V221Q475 154 457 102T394 20T269 -10Z"></glyph><glyph unicode="V" d="M214 0L24 810H97L250 139L394 810H466L283 0H214Z"></glyph><glyph unicode="W" d="M172 0L35 810H100L207 152L329 798H392L517 151L616 810H680L549 0H490L361 668L234 0H172Z"></glyph><glyph unicode="X" d="M14 0L189 422L16 810H87L232 487L371 810H444L265 413L450 0H377L223 342L87 0H14Z"></glyph><glyph unicode="Y" d="M200 0V269L17 810H91L237 360L377 810H452L274 269V0H200Z"></glyph><glyph unicode="Z" d="M34 0V57L305 753H56V810H387V770L109 57H387V0H34Z"></glyph><glyph unicode="[" d="M70 -160V810H244V769H144V-118H244V-160H70Z"></glyph><glyph unicode="\" d="M255 0L24 810H89L319 0H255Z"></glyph><glyph unicode="]" d="M40 -159V-118H141V768H40V810H215V-159H40Z"></glyph><glyph unicode="^" d="M29 511L159 810H235L366 511H299L198 759L95 511H29Z"></glyph><glyph unicode="_" d="M0 -106V-49H332V-106H0Z"></glyph><glyph unicode="`" d="M145 615L53 810H127L182 615H145Z"></glyph><glyph unicode="a" d="M156 -9Q121 -9 95 8T55 55T40 120Q40 164 52 195T92 250T164 298T273 351V392Q273 445 267 475T245 519T201 532Q178 532 160 523T131 493T120 433V413L48 414Q49 502 85 544T205 587Q283 587 314 541T346 396V115Q346 100 347 77T349 32T351 0H286Q284 19 280 42T275 80Q263 45 233 18T156 -9ZM179 53Q201 53 219 64T251 90T273 122V302Q230 280 200 262T150 227T122 189T113 138Q113 92 133 73T179 53Z"></glyph><glyph unicode="b" d="M233 -9Q198 -9 173 9T130 46V0H57V810H130V530Q147 552 174 569T240 587Q282 587 308 568T348 515T367 441T372 357V235Q372 161 360 107T317 22T233 -9ZM220 49Q254 49 270 70T292 132T298 233V357Q298 413 293 451T271 510T219 530Q192 530 169 515T130 485V91Q146 74 169 62T220 49Z"></glyph><glyph unicode="c" d="M200 -9Q132 -9 99 21T56 102T45 219V354Q45 434 58 485T104 562T200 587Q261 587 293 564T336 499T347 402V374H279V402Q279 453 272 481T247 520T200 532Q166 532 148 516T124 464T118 366V204Q118 117 135 82T201 46Q235 46 252 61T274 108T279 185V217H347V189Q347 131 337 87T294 17T200 -9Z"></glyph><glyph unicode="d" d="M184 -9Q110 -9 78 47T45 233V340Q45 416 56 471T96 556T181 587Q215 587 240 572T283 537V810H356V0H283V41Q266 22 242 7T184 -9ZM199 49Q223 49 244 60T283 87V489Q268 503 246 516T197 530Q149 530 134 488T118 364V227Q118 169 124 129T148 69T199 49Z"></glyph><glyph unicode="e" d="M201 -9Q147 -9 113 12T62 84T45 217V363Q45 449 62 497T114 566T202 587Q263 587 295 561T339 483T352 348V296H118V195Q118 139 126 107T153 60T201 46Q223 46 241 54T269 87T280 157V197H351V165Q351 86 319 39T201 -9ZM118 338H280V386Q280 432 275 464T254 514T201 532Q171 532 153 519T126 473T118 377V338Z"></glyph><glyph unicode="f" d="M92 0V525H18V578H92V638Q92 681 99 714T128 766T198 785Q214 785 228 784T257 778V724Q248 726 237 727T216 729Q183 729 175 709T166 645V578H259V525H166V0H92Z"></glyph><glyph unicode="g" d="M203 -190Q146 -190 104 -179T40 -145T17 -85Q17 -56 31 -32T67 10T112 41Q79 50 64 66T48 104Q48 134 66 158T117 209Q77 237 61 281T44 385Q44 441 61 486T114 559T206 587Q257 587 286 566T330 515Q339 529 361 549T408 580L423 585L443 534Q427 531 408 523T373 504T348 484Q355 466 360 435T366 383Q366 326 351 280T301 208T207 181Q192 181 176 184T148 190Q134 175 122 158T109 124Q109 110 120 103T157 92L249 78Q319 68 356 36T394 -56Q394 -101 370 -131T303 -175T203 -190ZM206 -131Q264 -131 300 -114T336 -57Q336 -37 328 -22T296 3T227 21L153 31Q138 21 121 7T92 -26T79 -67Q79 -100 110 -115T206 -131ZM207 234Q239 234 257 247T285 283T298 332T302 385Q302 411 298 437T284 485T256 521T207 535Q177 535 158 521T128 485T114 436T110 385Q110 361 113 334T126 285T156 248T207 234Z"></glyph><glyph unicode="h" d="M57 0V810H130V517Q159 548 194 567T271 587Q300 587 319 573T349 531T360 464V0H286V448Q286 493 273 511T231 530Q206 530 180 515T130 475V0H57Z"></glyph><glyph unicode="i" d="M64 0V578H137V0H64ZM64 658V757H137V658H64Z"></glyph><glyph unicode="j" d="M22 -152Q15 -152 2 -151T-17 -148V-92Q-14 -93 -5 -93T8 -94Q39 -94 53 -83T72 -53T77 -14V578H150V-20Q150 -89 116 -120T22 -152ZM77 658V757H150V658H77Z"></glyph><glyph unicode="k" d="M57 0V810H130V296L323 578H400L254 355L394 0H320L198 314L130 219V0H57Z"></glyph><glyph unicode="l" d="M66 0V810H139V0H66Z"></glyph><glyph unicode="m" d="M56 0V578H124V519Q153 553 188 570T260 588Q290 588 315 572T352 513Q382 550 418 569T494 588Q519 588 541 576T578 535T592 456V0H524V454Q524 505 508 521T466 538Q438 538 410 522T357 478Q358 473 358 468T359 456V0H290V454Q290 505 274 521T232 538Q205 538 177 522T124 479V0H56Z"></glyph><glyph unicode="n" d="M56 0V578H129V518Q157 548 192 567T268 587Q297 587 317 573T347 531T357 464V0H284V448Q284 493 271 511T229 530Q204 530 178 515T129 476V0H56Z"></glyph><glyph unicode="o" d="M199 -9Q140 -9 107 16T59 90T45 209V369Q45 439 59 487T106 561T199 587Q260 587 293 562T340 488T354 369V209Q354 139 340 91T293 17T199 -9ZM199 46Q237 46 254 66T276 122T280 205V373Q280 420 276 455T255 511T199 532Q161 532 144 512T123 456T119 373V205Q119 159 123 123T144 66T199 46Z"></glyph><glyph unicode="p" d="M56 -190V578H129V530Q147 552 174 569T240 587Q282 587 307 568T347 515T366 441T371 357V235Q371 161 359 107T317 22T232 -9Q197 -9 172 9T129 46V-190H56ZM221 49Q254 49 270 70T292 132T298 233V357Q298 413 293 451T270 510T219 530Q191 530 168 515T129 485V91Q145 74 168 62T221 49Z"></glyph><glyph unicode="q" d="M285 -190V41Q268 22 244 7T186 -9Q112 -9 80 47T47 233V340Q47 416 58 471T98 556T184 587Q217 587 242 572T285 536V578H358V-190H285ZM201 49Q225 49 246 60T285 88V488Q270 503 248 516T199 530Q151 530 136 488T120 364V227Q120 169 126 129T150 69T201 49Z"></glyph><glyph unicode="r" d="M61 0V578H135V499Q163 545 199 564T268 584Q271 584 274 584T281 583V505Q274 508 264 509T245 511Q211 511 184 495T135 444V0H61Z"></glyph><glyph unicode="s" d="M188 -9Q119 -9 78 35T31 155L92 174Q98 107 123 77T193 46Q231 46 251 67T272 128Q272 156 255 184T202 244L123 312Q84 345 64 378T44 457Q44 499 61 527T110 571T182 587Q248 587 282 545T319 435L267 418Q265 457 255 482T228 520T185 532Q152 532 132 514T111 462Q111 436 121 416T158 371L240 298Q264 277 286 253T322 200T336 130Q336 85 318 55T266 8T188 -9Z"></glyph><glyph unicode="t" d="M193 -7Q151 -7 129 9T98 54T89 120V530H18V578H89V757H162V578H258V530H162V127Q162 85 171 68T213 50Q222 50 233 51T255 55V-1Q240 -4 224 -5T193 -7Z"></glyph><glyph unicode="u" d="M141 -9Q112 -9 92 6T62 48T51 114V578H125V130Q125 85 138 67T180 49Q206 49 232 65T282 106V578H355V0H282V64Q254 32 218 12T141 -9Z"></glyph><glyph unicode="v" d="M143 0L18 578H92L186 84L279 578H350L229 0H143Z"></glyph><glyph unicode="w" d="M125 0L31 578H94L166 95L257 578H320L412 97L481 578H544L450 0H382L289 470L199 0H125Z"></glyph><glyph unicode="x" d="M16 0L153 302L23 578H95L194 366L289 578H363L228 294L365 0H295L187 227L86 0H16Z"></glyph><glyph unicode="y" d="M40 -144V-87Q90 -87 115 -80T149 -59T158 -27Q158 -11 152 15T139 69L20 578H93L193 86L290 578H364L224 -41Q216 -78 196 -100T142 -133T59 -144H40Z"></glyph><glyph unicode="z" d="M32 0V51L229 522H53V578H306V534L110 56H303V0H32Z"></glyph><glyph unicode="{" d="M238 -165Q187 -165 159 -158T117 -131T100 -70T96 37V166Q96 221 92 249T75 289T38 300V356Q63 356 75 367T91 408T96 491V616Q96 683 99 723T116 783T158 810T238 817V762Q213 762 199 758T179 740T172 697T171 616V475Q171 400 157 369T112 328Q143 320 157 289T171 181V37Q171 -14 172 -44T179 -88T199 -105T238 -109V-165Z"></glyph><glyph unicode="|" d="M74 -144L75 810H143V-144H74Z"></glyph><glyph unicode="}" d="M31 -165V-109Q56 -109 70 -106T90 -88T97 -44T98 37V181Q98 257 112 288T157 328Q126 337 112 368T98 475V616Q98 667 97 696T90 740T70 758T31 762V817Q82 817 110 811T153 784T170 723T173 616V491Q173 437 177 408T194 368T231 356V300Q207 300 195 289T178 250T173 166V37Q173 -30 170 -70T153 -130T111 -158T31 -165Z"></glyph><glyph unicode="~" d="M272 374Q250 374 225 388T176 416T134 430Q122 430 104 420T65 390L39 424Q53 441 70 455T106 478T138 487Q160 487 184 474T233 446T275 432Q289 432 304 442T342 470L368 436Q354 421 338 407T304 384T272 374Z"></glyph><glyph unicode=" "></glyph><glyph unicode="¡" d="M61 -194L88 442H114L139 -194H61ZM62 529V616H140V529H62Z"></glyph><glyph unicode="¢" d="M173 -100V-7Q118 -1 90 29T54 109T45 219V354Q45 430 56 479T96 555T177 586V676H207V587Q265 585 295 562T336 497T347 402V374H279V402Q279 453 272 481T247 520T200 532Q166 532 148 516T124 464T118 366V204Q118 117 135 82T201 46Q235 46 252 61T274 108T279 185V217H347V189Q347 131 337 87T296 18T203 -9V-100H173Z"></glyph><glyph unicode="£" d="M11 0V37L72 54V378H11V433H72V547Q72 606 76 655T97 741T144 798T227 818Q278 818 306 797T345 739T356 653Q356 647 356 639T356 628H300Q300 669 295 698T275 744T226 760Q188 760 171 737T150 676T144 587V433H277V378H144V55H354V0H11Z"></glyph><glyph unicode="¤" d="M42 186L27 201L107 280Q82 308 67 345T52 423Q52 464 67 501T107 566L27 645L42 660L121 581Q149 607 185 622T264 637Q306 637 342 622T407 581L486 660L501 645L422 566Q447 538 461 501T475 423Q475 382 461 345T421 280L501 201L486 186L407 265Q379 239 343 224T264 209Q222 208 186 223T121 265L42 186ZM264 243Q313 243 353 267T416 333T439 423Q439 473 416 513T353 578T264 603Q215 603 176 579T113 513T90 423Q90 374 113 333T175 268T264 243Z"></glyph><glyph unicode="¥" d="M188 0V110H88V159H188V249H88V297H178L5 810H79L225 360L365 810H440L271 297H360V249H261V159H360V110H261V0H188Z"></glyph><glyph unicode="¦" d="M71 394V810H132V394H71ZM71 -170V245H132V-170H71Z"></glyph><glyph unicode="§" d="M203 -9Q157 -9 125 13T73 70T43 146L99 164Q107 136 120 110T154 68T203 51Q240 51 262 70T286 125Q288 140 284 155T264 192T216 244L104 336Q74 360 56 387T38 451Q38 499 65 528T127 571Q100 595 77 624T54 691Q54 729 72 757T123 802T201 818Q246 818 276 796T324 741T352 673L296 655Q289 676 277 700T247 741T199 758Q168 758 147 740T126 685Q126 670 133 655T154 625T181 597L294 512Q330 484 350 449T368 365Q366 320 343 294T290 251Q313 227 333 199T354 131Q355 65 313 28T203 -9ZM243 291Q263 301 282 319T304 365Q307 393 294 417T250 468L172 532Q146 523 128 503T110 453Q110 435 119 418T144 386L243 291Z"></glyph><glyph unicode="¨" d="M232 721V810H308V721H232ZM69 721V810H143V721H69Z"></glyph><glyph unicode="©" d="M431 -11Q324 -11 248 26T124 124T52 260T29 412Q29 488 52 563T123 699T248 797T431 834Q538 834 614 797T738 699T810 563T833 412Q833 336 811 261T740 124T615 26T431 -11ZM423 122Q367 122 333 139T282 189T258 265T252 362V475Q252 562 266 616T318 696T423 721Q491 721 526 698T573 633T585 530V503H514V530Q514 585 505 614T476 653T424 664Q386 664 366 648T339 593T331 488V346Q331 283 339 247T368 196T425 180Q463 180 482 194T507 239T514 321V350H585V325Q585 263 574 217T529 147T423 122ZM433 24Q527 24 595 57T707 145T772 270T794 413Q794 486 773 555T707 679T595 766T433 799Q338 799 270 767T158 679T92 555T71 413Q71 339 92 270T157 146T270 57T433 24Z"></glyph><glyph unicode="ª" d="M175 340Q130 340 102 368T73 443Q73 476 85 499T121 541T184 577T277 616V659Q277 718 265 744T218 770Q198 770 183 761T158 733T149 681H88Q90 749 123 785T218 821Q267 821 294 802T331 743T341 645V346H284L282 407Q268 378 239 359T175 340ZM194 394Q223 394 244 411T277 452V583Q228 561 197 544T152 506T138 455Q138 421 155 408T194 394Z"></glyph><glyph unicode="«" d="M367 86L200 302V334L367 550V456L261 318L367 179V86ZM203 86L37 302V334L203 550V456L98 319L203 179V86Z"></glyph><glyph unicode="¬" d="M291 274V386H41V443H334V274H291Z"></glyph><glyph unicode="­" d="M57 370V427H281V370H57Z"></glyph><glyph unicode="®" d="M438 -12Q332 -12 256 24T132 122T62 258T39 408Q39 484 61 558T132 694T256 791T438 828Q545 828 620 792T744 694T815 559T838 408Q838 332 815 258T745 122T622 25T438 -12ZM439 27Q531 27 597 59T707 146T771 269T792 408Q792 480 772 548T708 670T598 756T438 788Q346 788 279 756T169 670T105 548T84 408Q84 337 104 269T168 146T279 59T439 27ZM299 123V702H462Q519 702 551 682T597 627T611 548Q611 497 590 460T518 408L619 123H551L458 397H364V123H299ZM364 436H446Q508 436 526 464T545 549Q545 600 527 628T456 656H364V436Z"></glyph><glyph unicode="¯" d="M74 763V810H252V763H74Z"></glyph><glyph unicode="°" d="M207 524Q167 524 134 540T80 589T60 672Q60 722 80 754T133 802T207 818Q247 818 280 802T334 754T354 672Q354 622 334 589T281 540T207 524ZM207 574Q244 574 270 598T296 671Q296 721 270 745T206 770Q169 770 143 746T117 671Q117 623 143 599T207 574Z"></glyph><glyph unicode="±" d="M142 180V270H52V331H142V420H204V331H294V270H204V180H142ZM52 0V61H294V0H52Z"></glyph><glyph unicode="²" d="M48 433V480L172 613Q205 649 224 674T252 720T260 764Q260 801 243 823T187 845Q141 845 123 817T104 734H49V743Q49 786 63 821T108 877T188 898Q248 898 282 863T317 767Q317 718 294 681T221 591L121 484H328V433H48Z"></glyph><glyph unicode="³" d="M184 423Q140 423 110 440T64 487T48 559V569H104V565Q104 522 124 499T186 476Q222 476 240 498T259 555Q259 594 240 616T178 638H159V688H175Q213 688 233 707T254 768Q254 802 236 823T184 845Q141 845 123 821T105 756V752H49V762Q49 829 85 863T184 898Q244 898 277 865T311 775Q311 730 291 702T243 664Q271 654 293 628T316 552Q316 491 279 457T184 423Z"></glyph><glyph unicode="´" d="M47 615L110 810H184L86 615H47Z"></glyph><glyph unicode="µ" d="M52 -173L51 578H125V130Q125 85 138 67T180 49Q206 49 232 65T282 106V578H355V0H282V64Q259 36 230 18T168 -4Q157 -5 146 -4T125 4V-173H52Z"></glyph><glyph unicode="¶" d="M200 -95V530Q122 529 76 565T29 669Q29 713 48 744T107 793T206 810H414V-95H360V768H254V-95H200Z"></glyph><glyph unicode="·" d="M64 333V421H139V333H64Z"></glyph><glyph unicode="¸" d="M123 -204Q113 -204 102 -203T80 -199V-161Q88 -163 96 -164T113 -165Q144 -165 161 -156T178 -124Q178 -108 170 -98T145 -82T104 -72V0H142V-50Q188 -52 211 -72T234 -125Q234 -151 221 -169T182 -195T123 -204Z"></glyph><glyph unicode="¹" d="M135 433V820L43 772V822L160 888H192V433H135Z"></glyph><glyph unicode="º" d="M206 339Q151 339 120 359T77 415T65 500V660Q65 733 95 777T206 821Q284 821 315 777T346 660V500Q346 454 334 418T291 360T206 339ZM204 389Q239 389 255 404T278 446T284 505V655Q284 688 278 714T256 755T204 771Q171 771 154 756T131 714T124 655V505Q124 473 130 447T153 405T204 389Z"></glyph><glyph unicode="»" d="M54 86V179L164 318L54 456V550L226 334V302L54 86ZM218 86V179L328 317L218 456V550L389 334V302L218 86Z"></glyph><glyph unicode="¼" d="M140 611V998L48 950V1000L165 1066H197V611H140ZM154 0L531 810H593L217 0H154ZM606 0V120H434V166L625 455H662V168H706V120H662V0H606ZM492 168H606L605 342L492 168Z"></glyph><glyph unicode="½" d="M351 611V998L259 950V1000L376 1066H408V611H351ZM109 0L486 810H548L172 0H109ZM453 0V47L577 180Q610 216 629 241T657 287T665 331Q665 368 648 390T592 412Q546 412 528 384T509 301H454V310Q454 353 468 388T513 444T593 465Q653 465 687 430T722 334Q722 285 699 248T626 158L526 51H733V0H453Z"></glyph><glyph unicode="¾" d="M439 599Q395 599 365 616T319 663T303 735V745H359V741Q359 698 379 675T441 652Q477 652 495 674T514 731Q514 770 495 792T433 814H414V864H430Q468 864 488 883T509 944Q509 978 491 999T439 1021Q396 1021 378 997T360 932V928H304V938Q304 1005 340 1039T439 1074Q499 1074 532 1041T566 951Q566 906 546 878T498 840Q526 830 548 804T571 728Q571 667 534 633T439 599ZM217 0L594 810H656L280 0H217ZM669 0V120H497V166L688 455H725V168H769V120H725V0H669ZM555 168H669L668 342L555 168Z"></glyph><glyph unicode="¿" d="M289 411V287Q228 243 188 198T127 105T107 1Q107 -70 139 -106T227 -142Q275 -142 305 -116T335 -44Q335 -30 333 -17T325 11L392 26Q399 8 402 -8T406 -43Q406 -118 357 -162T227 -206Q140 -206 88 -151T36 3Q36 70 58 122T123 219T225 307V411H289ZM292 612V525H220V612H292Z"></glyph><glyph unicode="À" d="M27 0L198 810H278L450 0H375L335 217H142L101 0H27ZM153 272H325L239 709L153 272ZM220 858L128 1054H202L257 858H220Z"></glyph><glyph unicode="Á" d="M27 0L198 810H278L450 0H375L335 217H142L101 0H27ZM153 272H325L239 709L153 272ZM220 858L283 1054H356L258 858H220Z"></glyph><glyph unicode="Â" d="M27 0L198 810H278L450 0H375L335 217H142L101 0H27ZM153 272H325L239 709L153 272ZM112 864L198 1042H280L365 864H311L238 1005L166 864H112Z"></glyph><glyph unicode="Ã" d="M27 0L198 810H278L450 0H375L335 217H142L101 0H27ZM153 272H325L239 709L153 272ZM300 924Q276 924 257 936T222 960T187 972Q171 972 163 962T154 932H109Q109 949 114 969T135 1005T178 1020Q202 1020 221 1009T257 985T292 973Q309 973 317 982T325 1016H369Q369 998 365 977T345 940T300 924Z"></glyph><glyph unicode="Ä" d="M27 0L198 810H278L450 0H375L335 217H142L101 0H27ZM153 272H325L239 709L153 272ZM284 953V1042H359V953H284ZM119 953V1042H194V953H119Z"></glyph><glyph unicode="Å" d="M27 0L198 810H278L450 0H375L335 217H142L101 0H27ZM153 272H325L239 709L153 272ZM239 861Q201 861 172 885T143 956Q143 1004 172 1027T239 1051Q278 1051 306 1028T335 956Q335 909 307 885T239 861ZM239 901Q261 901 277 914T294 956Q294 986 278 999T239 1012Q216 1012 200 999T184 956Q184 928 200 915T239 901Z"></glyph><glyph unicode="Æ" d="M-28 0L296 810H599V749H383V451H538V393H383V60H599V0H306V217H136L52 0H-28ZM157 275H306V681L157 275Z"></glyph><glyph unicode="Ç" d="M259 -10Q177 -10 133 24T71 115T54 243V565Q54 640 71 697T134 786T259 818Q332 818 373 790T433 711T451 588V539H379V586Q379 639 371 677T336 736T260 757Q205 757 178 735T141 671T131 576V231Q131 171 142 131T182 71T260 51Q311 51 336 73T370 134T379 227V280H451V232Q451 161 435 107T377 21T259 -10ZM250 -204Q240 -204 229 -203T207 -199V-161Q215 -163 223 -164T240 -165Q271 -165 288 -156T305 -124Q305 -108 297 -98T272 -82T231 -72V0H269V-50Q315 -52 338 -72T361 -125Q361 -151 348 -169T309 -195T250 -204Z"></glyph><glyph unicode="È" d="M70 0V810H363V751H147V447H323V391H147V57H365V0H70ZM201 858L109 1054H183L238 858H201Z"></glyph><glyph unicode="É" d="M70 0V810H363V751H147V447H323V391H147V57H365V0H70ZM201 858L264 1054H337L239 858H201Z"></glyph><glyph unicode="Ê" d="M70 0V810H363V751H147V447H323V391H147V57H365V0H70ZM93 864L179 1042H261L346 864H292L219 1005L147 864H93Z"></glyph><glyph unicode="Ë" d="M70 0V810H363V751H147V447H323V391H147V57H365V0H70ZM265 953V1042H340V953H265ZM100 953V1042H175V953H100Z"></glyph><glyph unicode="Ì" d="M73 0V810H149V0H73ZM92 858L0 1054H74L129 858H92Z"></glyph><glyph unicode="Í" d="M73 0V810H149V0H73ZM92 858L155 1054H228L130 858H92Z"></glyph><glyph unicode="Î" d="M73 0V810H149V0H73ZM-16 864L70 1042H152L237 864H183L110 1005L38 864H-16Z"></glyph><glyph unicode="Ï" d="M73 0V810H149V0H73ZM157 953V1042H232V953H157ZM-8 953V1042H67V953H-8Z"></glyph><glyph unicode="Ð" d="M71 0V401H11V448H71V810H247Q332 810 379 781T447 697T467 572V250Q467 175 447 119T381 31T254 0H71ZM147 57H249Q313 57 343 83T381 156T389 262V564Q389 625 379 666T338 729T246 751H147V448H228V401H147V57Z"></glyph><glyph unicode="Ñ" d="M71 0V810H126L384 181V810H450V0H396L137 636V0H71ZM321 924Q297 924 278 936T243 960T208 972Q192 972 184 962T175 932H130Q130 949 135 969T156 1005T199 1020Q223 1020 242 1009T278 985T313 973Q330 973 338 982T346 1016H390Q390 998 386 977T366 940T321 924Z"></glyph><glyph unicode="Ò" d="M263 -10Q182 -10 137 21T73 109T54 239V575Q54 649 73 703T138 788T263 818Q341 818 386 788T451 704T470 575V238Q470 165 452 110T388 22T263 -10ZM263 51Q316 51 344 72T382 132T393 222V589Q393 640 383 678T344 736T263 757Q209 757 181 737T142 678T131 589V222Q131 171 141 133T180 73T263 51ZM244 858L152 1054H226L281 858H244Z"></glyph><glyph unicode="Ó" d="M263 -10Q182 -10 137 21T73 109T54 239V575Q54 649 73 703T138 788T263 818Q341 818 386 788T451 704T470 575V238Q470 165 452 110T388 22T263 -10ZM263 51Q316 51 344 72T382 132T393 222V589Q393 640 383 678T344 736T263 757Q209 757 181 737T142 678T131 589V222Q131 171 141 133T180 73T263 51ZM244 858L307 1054H380L282 858H244Z"></glyph><glyph unicode="Ô" d="M263 -10Q182 -10 137 21T73 109T54 239V575Q54 649 73 703T138 788T263 818Q341 818 386 788T451 704T470 575V238Q470 165 452 110T388 22T263 -10ZM263 51Q316 51 344 72T382 132T393 222V589Q393 640 383 678T344 736T263 757Q209 757 181 737T142 678T131 589V222Q131 171 141 133T180 73T263 51ZM136 864L222 1042H304L389 864H335L262 1005L190 864H136Z"></glyph><glyph unicode="Õ" d="M263 -10Q182 -10 137 21T73 109T54 239V575Q54 649 73 703T138 788T263 818Q341 818 386 788T451 704T470 575V238Q470 165 452 110T388 22T263 -10ZM263 51Q316 51 344 72T382 132T393 222V589Q393 640 383 678T344 736T263 757Q209 757 181 737T142 678T131 589V222Q131 171 141 133T180 73T263 51ZM324 924Q300 924 281 936T246 960T211 972Q195 972 187 962T178 932H133Q133 949 138 969T159 1005T202 1020Q226 1020 245 1009T281 985T316 973Q333 973 341 982T349 1016H393Q393 998 389 977T369 940T324 924Z"></glyph><glyph unicode="Ö" d="M263 -10Q182 -10 137 21T73 109T54 239V575Q54 649 73 703T138 788T263 818Q341 818 386 788T451 704T470 575V238Q470 165 452 110T388 22T263 -10ZM263 51Q316 51 344 72T382 132T393 222V589Q393 640 383 678T344 736T263 757Q209 757 181 737T142 678T131 589V222Q131 171 141 133T180 73T263 51ZM308 953V1042H383V953H308ZM143 953V1042H218V953H143Z"></glyph><glyph unicode="×" d="M79 255L41 294L139 392L41 490L79 528L177 430L274 528L313 490L214 392L313 294L274 255L177 354L79 255Z"></glyph><glyph unicode="Ø" d="M141 -87L110 -78L382 890L413 882L141 -87ZM263 -10Q182 -10 137 21T73 109T54 239V575Q54 649 73 703T138 788T263 818Q341 818 386 788T451 704T470 575V238Q470 165 452 110T388 22T263 -10ZM263 51Q316 51 344 72T382 132T393 222V589Q393 640 383 678T344 736T263 757Q209 757 181 737T142 678T131 589V222Q131 171 141 133T180 73T263 51Z"></glyph><glyph unicode="Ù" d="M269 -10Q187 -10 142 19T79 101T62 221V810H136V219Q136 172 146 134T186 73T269 51Q321 51 350 73T390 134T402 219V810H475V221Q475 154 457 102T394 20T269 -10ZM250 858L158 1054H232L287 858H250Z"></glyph><glyph unicode="Ú" d="M269 -10Q187 -10 142 19T79 101T62 221V810H136V219Q136 172 146 134T186 73T269 51Q321 51 350 73T390 134T402 219V810H475V221Q475 154 457 102T394 20T269 -10ZM250 858L313 1054H386L288 858H250Z"></glyph><glyph unicode="Û" d="M269 -10Q187 -10 142 19T79 101T62 221V810H136V219Q136 172 146 134T186 73T269 51Q321 51 350 73T390 134T402 219V810H475V221Q475 154 457 102T394 20T269 -10ZM142 864L228 1042H310L395 864H341L268 1005L196 864H142Z"></glyph><glyph unicode="Ü" d="M269 -10Q187 -10 142 19T79 101T62 221V810H136V219Q136 172 146 134T186 73T269 51Q321 51 350 73T390 134T402 219V810H475V221Q475 154 457 102T394 20T269 -10ZM315 953V1042H390V953H315ZM150 953V1042H225V953H150Z"></glyph><glyph unicode="Ý" d="M200 0V269L17 810H91L237 360L377 810H452L274 269V0H200ZM216 858L279 1054H352L254 858H216Z"></glyph><glyph unicode="Þ" d="M71 0V810H147V705H286Q356 705 398 675T458 594T477 479Q477 433 467 391T434 315T372 263T275 244H147V0H71ZM147 308H260Q332 308 366 346T401 478Q401 566 367 603T267 641H147V308Z"></glyph><glyph unicode="ß" d="M190 -10V51Q248 51 284 66T340 108T367 167T374 235Q374 282 360 321T315 385T229 409L230 471Q271 471 294 493T327 550T337 625Q337 692 315 729T235 766Q202 766 180 753T146 706T135 612V0H62V611Q62 688 81 735T139 803T234 825Q317 825 362 775T408 625Q408 554 384 510T311 446Q360 434 389 403T432 329T446 237Q446 188 434 144T394 64T315 10T190 -10Z"></glyph><glyph unicode="à" d="M156 -9Q121 -9 95 8T55 55T40 120Q40 164 52 195T92 250T164 298T273 351V392Q273 445 267 475T245 519T201 532Q178 532 160 523T131 493T120 433V413L48 414Q49 502 85 544T205 587Q283 587 314 541T346 396V115Q346 100 347 77T349 32T351 0H286Q284 19 280 42T275 80Q263 45 233 18T156 -9ZM179 53Q201 53 219 64T251 90T273 122V302Q230 280 200 262T150 227T122 189T113 138Q113 92 133 73T179 53ZM185 626L93 822H167L222 626H185Z"></glyph><glyph unicode="á" d="M156 -9Q121 -9 95 8T55 55T40 120Q40 164 52 195T92 250T164 298T273 351V392Q273 445 267 475T245 519T201 532Q178 532 160 523T131 493T120 433V413L48 414Q49 502 85 544T205 587Q283 587 314 541T346 396V115Q346 100 347 77T349 32T351 0H286Q284 19 280 42T275 80Q263 45 233 18T156 -9ZM179 53Q201 53 219 64T251 90T273 122V302Q230 280 200 262T150 227T122 189T113 138Q113 92 133 73T179 53ZM185 626L248 822H321L223 626H185Z"></glyph><glyph unicode="â" d="M156 -9Q121 -9 95 8T55 55T40 120Q40 164 52 195T92 250T164 298T273 351V392Q273 445 267 475T245 519T201 532Q178 532 160 523T131 493T120 433V413L48 414Q49 502 85 544T205 587Q283 587 314 541T346 396V115Q346 100 347 77T349 32T351 0H286Q284 19 280 42T275 80Q263 45 233 18T156 -9ZM179 53Q201 53 219 64T251 90T273 122V302Q230 280 200 262T150 227T122 189T113 138Q113 92 133 73T179 53ZM77 632L163 810H245L330 632H276L203 773L131 632H77Z"></glyph><glyph unicode="ã" d="M156 -9Q121 -9 95 8T55 55T40 120Q40 164 52 195T92 250T164 298T273 351V392Q273 445 267 475T245 519T201 532Q178 532 160 523T131 493T120 433V413L48 414Q49 502 85 544T205 587Q283 587 314 541T346 396V115Q346 100 347 77T349 32T351 0H286Q284 19 280 42T275 80Q263 45 233 18T156 -9ZM179 53Q201 53 219 64T251 90T273 122V302Q230 280 200 262T150 227T122 189T113 138Q113 92 133 73T179 53ZM265 692Q241 692 222 704T187 728T152 740Q136 740 128 730T119 700H74Q74 717 79 737T100 773T143 788Q167 788 186 777T222 753T257 741Q274 741 282 750T290 784H334Q334 766 330 745T310 708T265 692Z"></glyph><glyph unicode="ä" d="M156 -9Q121 -9 95 8T55 55T40 120Q40 164 52 195T92 250T164 298T273 351V392Q273 445 267 475T245 519T201 532Q178 532 160 523T131 493T120 433V413L48 414Q49 502 85 544T205 587Q283 587 314 541T346 396V115Q346 100 347 77T349 32T351 0H286Q284 19 280 42T275 80Q263 45 233 18T156 -9ZM179 53Q201 53 219 64T251 90T273 122V302Q230 280 200 262T150 227T122 189T113 138Q113 92 133 73T179 53ZM250 721V810H325V721H250ZM85 721V810H160V721H85Z"></glyph><glyph unicode="å" d="M156 -9Q121 -9 95 8T55 55T40 120Q40 164 52 195T92 250T164 298T273 351V392Q273 445 267 475T245 519T201 532Q178 532 160 523T131 493T120 433V413L48 414Q49 502 85 544T205 587Q283 587 314 541T346 396V115Q346 100 347 77T349 32T351 0H286Q284 19 280 42T275 80Q263 45 233 18T156 -9ZM179 53Q201 53 219 64T251 90T273 122V302Q230 280 200 262T150 227T122 189T113 138Q113 92 133 73T179 53ZM204 629Q166 629 137 653T108 724Q108 772 137 795T204 819Q243 819 271 796T300 724Q300 677 272 653T204 629ZM204 669Q226 669 242 682T259 724Q259 754 243 767T204 780Q181 780 165 767T149 724Q149 696 165 683T204 669Z"></glyph><glyph unicode="æ" d="M164 -9Q105 -9 73 27T40 120Q40 162 52 195T98 253T190 298L274 325V406Q274 474 257 502T195 530Q173 530 156 520T128 486T118 424L47 425Q47 504 85 545T194 587Q249 587 281 555T316 466H306Q308 508 327 535T377 574T443 587Q509 587 541 553T574 464Q574 420 558 393T512 350T444 323L348 293V198Q348 121 366 86T428 50Q451 50 468 59T495 93T506 163V197H579V165Q579 112 565 74T519 13T433 -9Q398 -9 371 3T326 41T302 108Q292 67 271 41T223 3T164 -9ZM181 48Q206 48 227 62T261 110T274 200V279L211 256Q169 240 148 222T119 182T112 132Q112 103 122 84T147 57T181 48ZM348 337L432 364Q473 377 490 396T507 455Q507 483 491 505T434 528Q405 528 386 515T358 471T348 389V337Z"></glyph><glyph unicode="ç" d="M200 -9Q132 -9 99 21T56 102T45 219V354Q45 434 58 485T104 562T200 587Q261 587 293 564T336 499T347 402V374H279V402Q279 453 272 481T247 520T200 532Q166 532 148 516T124 464T118 366V204Q118 117 135 82T201 46Q235 46 252 61T274 108T279 185V217H347V189Q347 131 337 87T294 17T200 -9ZM195 -204Q185 -204 174 -203T152 -199V-161Q160 -163 168 -164T185 -165Q216 -165 233 -156T250 -124Q250 -108 242 -98T217 -82T176 -72V0H214V-50Q260 -52 283 -72T306 -125Q306 -151 293 -169T254 -195T195 -204Z"></glyph><glyph unicode="è" d="M201 -9Q147 -9 113 12T62 84T45 217V363Q45 449 62 497T114 566T202 587Q263 587 295 561T339 483T352 348V296H118V195Q118 139 126 107T153 60T201 46Q223 46 241 54T269 87T280 157V197H351V165Q351 86 319 39T201 -9ZM118 338H280V386Q280 432 275 464T254 514T201 532Q171 532 153 519T126 473T118 377V338ZM179 626L87 822H161L216 626H179Z"></glyph><glyph unicode="é" d="M201 -9Q147 -9 113 12T62 84T45 217V363Q45 449 62 497T114 566T202 587Q263 587 295 561T339 483T352 348V296H118V195Q118 139 126 107T153 60T201 46Q223 46 241 54T269 87T280 157V197H351V165Q351 86 319 39T201 -9ZM118 338H280V386Q280 432 275 464T254 514T201 532Q171 532 153 519T126 473T118 377V338ZM179 626L242 822H315L217 626H179Z"></glyph><glyph unicode="ê" d="M201 -9Q147 -9 113 12T62 84T45 217V363Q45 449 62 497T114 566T202 587Q263 587 295 561T339 483T352 348V296H118V195Q118 139 126 107T153 60T201 46Q223 46 241 54T269 87T280 157V197H351V165Q351 86 319 39T201 -9ZM118 338H280V386Q280 432 275 464T254 514T201 532Q171 532 153 519T126 473T118 377V338ZM71 632L157 810H239L324 632H270L197 773L125 632H71Z"></glyph><glyph unicode="ë" d="M201 -9Q147 -9 113 12T62 84T45 217V363Q45 449 62 497T114 566T202 587Q263 587 295 561T339 483T352 348V296H118V195Q118 139 126 107T153 60T201 46Q223 46 241 54T269 87T280 157V197H351V165Q351 86 319 39T201 -9ZM118 338H280V386Q280 432 275 464T254 514T201 532Q171 532 153 519T126 473T118 377V338ZM244 721V810H319V721H244ZM79 721V810H154V721H79Z"></glyph><glyph unicode="ì" d="M64 0V578H137V0H64ZM82 626L-10 822H64L119 626H82Z"></glyph><glyph unicode="í" d="M64 0V578H137V0H64ZM82 626L145 822H218L120 626H82Z"></glyph><glyph unicode="î" d="M64 0V578H137V0H64ZM-26 632L60 810H142L227 632H173L100 773L28 632H-26Z"></glyph><glyph unicode="ï" d="M64 0V578H137V0H64ZM146 721V810H221V721H146ZM-19 721V810H56V721H-19Z"></glyph><glyph unicode="ð" d="M223 -10Q163 -10 126 18T71 99T54 224V298Q55 381 70 438T119 526T208 556Q238 556 262 547T306 526Q301 563 293 601T271 662L162 631V671L251 696Q230 733 189 752T80 775L83 825Q166 822 221 797T309 715L403 741V700L328 680Q342 650 355 602T378 490T387 349V244Q387 164 373 107T322 20T223 -10ZM225 49Q263 49 282 71T307 139T314 259Q314 282 314 312T312 374T310 431T308 469Q291 480 271 488T226 497Q192 497 170 475T138 402T127 267Q127 194 135 145T165 73T225 49Z"></glyph><glyph unicode="ñ" d="M56 0V578H129V518Q157 548 192 567T268 587Q297 587 317 573T347 531T357 464V0H284V448Q284 493 271 511T229 530Q204 530 178 515T129 476V0H56ZM266 692Q242 692 223 704T188 728T153 740Q137 740 129 730T120 700H75Q75 717 80 737T101 773T144 788Q168 788 187 777T223 753T258 741Q275 741 283 750T291 784H335Q335 766 331 745T311 708T266 692Z"></glyph><glyph unicode="ò" d="M199 -9Q140 -9 107 16T59 90T45 209V369Q45 439 59 487T106 561T199 587Q260 587 293 562T340 488T354 369V209Q354 139 340 91T293 17T199 -9ZM199 46Q237 46 254 66T276 122T280 205V373Q280 420 276 455T255 511T199 532Q161 532 144 512T123 456T119 373V205Q119 159 123 123T144 66T199 46ZM181 626L89 822H163L218 626H181Z"></glyph><glyph unicode="ó" d="M199 -9Q140 -9 107 16T59 90T45 209V369Q45 439 59 487T106 561T199 587Q260 587 293 562T340 488T354 369V209Q354 139 340 91T293 17T199 -9ZM199 46Q237 46 254 66T276 122T280 205V373Q280 420 276 455T255 511T199 532Q161 532 144 512T123 456T119 373V205Q119 159 123 123T144 66T199 46ZM181 626L244 822H317L219 626H181Z"></glyph><glyph unicode="ô" d="M199 -9Q140 -9 107 16T59 90T45 209V369Q45 439 59 487T106 561T199 587Q260 587 293 562T340 488T354 369V209Q354 139 340 91T293 17T199 -9ZM199 46Q237 46 254 66T276 122T280 205V373Q280 420 276 455T255 511T199 532Q161 532 144 512T123 456T119 373V205Q119 159 123 123T144 66T199 46ZM73 632L159 810H241L326 632H272L199 773L127 632H73Z"></glyph><glyph unicode="õ" d="M199 -9Q140 -9 107 16T59 90T45 209V369Q45 439 59 487T106 561T199 587Q260 587 293 562T340 488T354 369V209Q354 139 340 91T293 17T199 -9ZM199 46Q237 46 254 66T276 122T280 205V373Q280 420 276 455T255 511T199 532Q161 532 144 512T123 456T119 373V205Q119 159 123 123T144 66T199 46ZM261 692Q237 692 218 704T183 728T148 740Q132 740 124 730T115 700H70Q70 717 75 737T96 773T139 788Q163 788 182 777T218 753T253 741Q270 741 278 750T286 784H330Q330 766 326 745T306 708T261 692Z"></glyph><glyph unicode="ö" d="M199 -9Q140 -9 107 16T59 90T45 209V369Q45 439 59 487T106 561T199 587Q260 587 293 562T340 488T354 369V209Q354 139 340 91T293 17T199 -9ZM199 46Q237 46 254 66T276 122T280 205V373Q280 420 276 455T255 511T199 532Q161 532 144 512T123 456T119 373V205Q119 159 123 123T144 66T199 46ZM246 721V810H321V721H246ZM81 721V810H156V721H81Z"></glyph><glyph unicode="÷" d="M26 387V443H311V387H26ZM137 196V287H199V196H137ZM137 533V623H199V533H137Z"></glyph><glyph unicode="ø" d="M85 -76L60 -68L320 647L347 637L85 -76ZM199 -9Q140 -9 107 16T59 90T45 209V369Q45 439 59 487T106 561T199 587Q260 587 293 562T340 488T354 369V209Q354 139 340 91T293 17T199 -9ZM199 46Q237 46 254 66T276 122T280 205V373Q280 420 276 455T255 511T199 532Q161 532 144 512T123 456T119 373V205Q119 159 123 123T144 66T199 46Z"></glyph><glyph unicode="ù" d="M141 -9Q112 -9 92 6T62 48T51 114V578H125V130Q125 85 138 67T180 49Q206 49 232 65T282 106V578H355V0H282V64Q254 32 218 12T141 -9ZM187 626L95 822H169L224 626H187Z"></glyph><glyph unicode="ú" d="M141 -9Q112 -9 92 6T62 48T51 114V578H125V130Q125 85 138 67T180 49Q206 49 232 65T282 106V578H355V0H282V64Q254 32 218 12T141 -9ZM187 626L250 822H323L225 626H187Z"></glyph><glyph unicode="û" d="M141 -9Q112 -9 92 6T62 48T51 114V578H125V130Q125 85 138 67T180 49Q206 49 232 65T282 106V578H355V0H282V64Q254 32 218 12T141 -9ZM80 632L166 810H248L333 632H279L206 773L134 632H80Z"></glyph><glyph unicode="ü" d="M141 -9Q112 -9 92 6T62 48T51 114V578H125V130Q125 85 138 67T180 49Q206 49 232 65T282 106V578H355V0H282V64Q254 32 218 12T141 -9ZM252 721V810H327V721H252ZM87 721V810H162V721H87Z"></glyph><glyph unicode="ý" d="M40 -144V-87Q90 -87 115 -80T149 -59T158 -27Q158 -11 152 15T139 69L20 578H93L193 86L290 578H364L224 -41Q216 -78 196 -100T142 -133T59 -144H40ZM172 626L235 822H308L210 626H172Z"></glyph><glyph unicode="þ" d="M57 -190V810H130V530Q147 552 174 569T241 587Q283 587 308 568T348 515T367 441T372 357V235Q372 161 360 107T317 22T233 -9Q198 -9 173 9T130 46V-190H57ZM221 49Q254 49 270 70T292 132T298 233V357Q298 413 293 451T271 510T220 530Q191 530 168 515T130 485V91Q146 74 169 62T221 49Z"></glyph><glyph unicode="ÿ" d="M40 -144V-87Q90 -87 115 -80T149 -59T158 -27Q158 -11 152 15T139 69L20 578H93L193 86L290 578H364L224 -41Q216 -78 196 -100T142 -133T59 -144H40ZM237 721V810H312V721H237ZM72 721V810H147V721H72Z"></glyph><glyph unicode="–" d="M41 210V270H436V210H41Z"></glyph><glyph unicode="—" d="M41 246V305H794V246H41Z"></glyph><glyph unicode="‘" d="M32 610Q32 631 32 652T32 694Q32 756 47 791T105 838L122 813Q94 801 85 778T76 709H117V610H32Z"></glyph><glyph unicode="’" d="M69 581L51 608Q79 619 88 642T97 711H57V810H141Q141 789 141 768T141 726Q141 664 126 629T69 581Z"></glyph><glyph unicode="‚" d="M69 -119L51 -92Q79 -81 88 -58T97 11H57V110H141Q141 89 141 68T141 26Q141 -36 126 -71T69 -119Z"></glyph><glyph unicode="“" d="M32 610Q32 631 32 652T32 694Q32 756 47 791T105 838L122 813Q94 801 85 778T76 709H117V610H32ZM167 610Q167 631 167 652T167 694Q167 756 182 791T240 838L257 813Q229 801 220 778T211 709H252V610H167Z"></glyph><glyph unicode="”" d="M69 581L51 608Q79 619 88 642T97 711H57V810H141Q141 789 141 768T141 726Q141 664 126 629T69 581ZM204 581L186 608Q214 619 223 642T232 711H192V810H276Q276 789 276 768T276 726Q276 664 261 629T204 581Z"></glyph><glyph unicode="„" d="M204 -119L186 -92Q214 -81 223 -58T232 11H192V110H276Q276 89 276 68T276 26Q276 -36 261 -71T204 -119ZM69 -119L51 -92Q79 -81 88 -58T97 11H57V110H141Q141 89 141 68T141 26Q141 -36 126 -71T69 -119Z"></glyph><glyph unicode="•" d="M151 297Q122 297 102 309T72 342T61 389Q61 416 71 436T102 469T150 481Q180 481 200 469T230 437T241 390Q241 363 231 342T200 309T151 297Z"></glyph><glyph unicode="‹" d="M285 86L99 302V334L285 550V456L161 318L285 179V86Z"></glyph><glyph unicode="›" d="M74 115V208L199 347L74 486V579L260 363V330L74 115Z"></glyph></font>
</defs>
</svg>
