<?xml version="1.0" encoding="UTF-8" standalone="no"?> <svg xmlns="http://www.w3.org/2000/svg"><defs><font id="OpenSans"><glyph unicode=" "></glyph><glyph unicode="!" d="M141 485L307 1462H647L399 485H141ZM180 -27Q95 -27 60 17T25 115Q25 189 71 251T229 313Q297 313 338 275T379 168Q379 83 325 28T180 -27Z"></glyph><glyph unicode="&quot;" d="M604 934L678 1462H954L803 934H604ZM201 934L272 1462H549L397 934H201Z"></glyph><glyph unicode="#" d="M166 0L279 408H41L59 614H336L406 846H154L172 1055H461L580 1462H797L680 1055H879L995 1462H1210L1094 1055H1333L1315 846H1036L967 614H1225L1206 408H909L793 0H573L690 408H496L381 0H166ZM553 614H750L819 846H623L553 614Z"></glyph><glyph unicode="$" d="M362 -119L406 82Q301 88 213 109T51 168V434Q128 391 232 357T455 317L526 639Q437 673 365 720T250 837T207 1004Q207 1127 268 1213T437 1347T684 1405L719 1556H858L825 1405Q908 1395 978 1374T1120 1315L1014 1083Q957 1111 894 1132T772 1157L709 858Q801 822 874 778T991 666T1034 496Q1034 384 984 295T825 149T541 80L502 -119H362ZM594 322Q636 328 668 346T717 394T735 465Q735 496 724 519T694 558T651 584L594 322ZM582 911L633 1157Q598 1153 568 1139T520 1096T502 1022Q502 998 510 977T536 940T582 911Z"></glyph><glyph unicode="%" d="M231 0L1319 1462H1554L471 0H231ZM397 565Q259 565 187 649T115 885Q115 957 128 1039T172 1199T250 1342T369 1444T535 1483Q672 1483 746 1403T821 1165Q821 1095 808 1014T764 854T685 709T564 605T397 565ZM416 772Q445 772 470 798T514 867T547 964T568 1073T575 1178Q575 1227 561 1250T518 1274Q491 1274 467 1250T424 1184T390 1089T368 979T360 868Q360 821 374 797T416 772ZM1262 -18Q1119 -18 1046 61T973 283Q973 369 987 456T1033 623T1113 765T1231 863T1393 899Q1530 899 1604 820T1679 590Q1679 516 1666 433T1622 269T1544 124T1425 21T1262 -18ZM1274 188Q1303 188 1328 214T1372 283T1406 380T1427 489T1434 594Q1434 643 1420 666T1376 690Q1349 690 1325 666T1282 600T1248 506T1227 396T1219 285Q1219 237 1232 213T1274 188Z"></glyph><glyph unicode="&amp;" d="M500 -20Q292 -20 180 78T68 358Q68 461 106 539T222 683T420 807Q382 872 363 937T344 1065Q344 1203 401 1296T556 1437T778 1485Q906 1485 986 1442T1103 1330T1141 1178Q1141 1077 1098 998T972 859T776 752L971 489Q1028 562 1063 632T1130 784H1430Q1389 687 1342 600T1241 434T1120 287L1325 0H975L903 98Q824 45 727 13T500 -20ZM545 236Q589 236 628 244T702 265T766 295L541 623Q493 595 458 563T403 489T383 387Q383 347 402 313T457 257T545 236ZM662 920Q703 941 738 963T801 1012T844 1071T860 1143Q860 1200 830 1225T760 1251Q714 1251 683 1229T637 1169T621 1085Q621 1039 633 993T662 920Z"></glyph><glyph unicode="'" d="M201 934L272 1462H549L397 934H201Z"></glyph><glyph unicode="(" d="M223 -324Q173 -235 140 -137T91 66T74 281Q74 458 106 617T203 922T361 1201T578 1462H840Q731 1343 640 1211T481 930T377 618T340 270Q340 166 354 64T394 -136T457 -324H223Z"></glyph><glyph unicode=")" d="M-147 -324Q-38 -205 53 -72T211 208T315 520T352 868Q352 973 338 1075T299 1274T236 1462H469Q519 1374 552 1276T601 1073T618 858Q618 681 586 522T489 217T332 -63T115 -324H-147Z"></glyph><glyph unicode="*" d="M717 578L627 915L430 637L223 801L498 1049L172 1141L258 1378L596 1204L629 1573L885 1522L772 1169L1159 1198L1141 944L803 987L963 651L717 578Z"></glyph><glyph unicode="+" d="M715 831H1102V612H715V227H496V612H109V831H496V1221H715V831Z"></glyph><glyph unicode="," d="M-102 -264Q-66 -183 -32 -94T35 81T92 238H377L385 215Q352 143 310 60T219 -106T123 -264H-102Z"></glyph><glyph unicode="-" d="M41 424L94 674H618L565 424H41Z"></glyph><glyph unicode="." d="M180 -27Q95 -27 60 17T25 115Q25 189 71 251T229 313Q297 313 338 275T379 168Q379 83 325 28T180 -27Z"></glyph><glyph unicode="/" d="M-90 0L719 1462H1014L205 0H-90Z"></glyph><glyph unicode="0" d="M469 -20Q262 -20 164 107T66 467Q66 601 84 727T139 968T230 1176T356 1340T517 1447T711 1485Q805 1485 879 1458T1004 1372T1083 1225T1110 1012Q1110 882 1094 756T1045 514T960 301T837 132T674 20T469 -20ZM494 229Q543 229 585 264T661 362T723 504T769 673T797 851T807 1022Q807 1132 777 1183T684 1235Q633 1235 590 1196T511 1091T450 943T405 774T378 606T369 461Q369 347 396 288T494 229Z"></glyph><glyph unicode="1" d="M383 0L563 829Q571 864 583 914T611 1018T639 1116Q620 1101 581 1072T510 1022L315 899L182 1114L748 1462H997L688 0H383Z"></glyph><glyph unicode="2" d="M-49 0L-6 213L471 637Q560 716 621 778T718 890T771 985T788 1071Q788 1146 747 1185T637 1225Q588 1225 542 1209T444 1159T330 1073L184 1276Q288 1364 408 1423T686 1483Q830 1483 921 1432T1055 1300T1098 1126Q1098 996 1042 891T889 689T668 492L399 270V260H967L913 0H-49Z"></glyph><glyph unicode="3" d="M401 -20Q288 -20 188 -1T14 59V326Q97 277 196 251T387 225Q460 225 520 239T624 284T691 359T715 465Q715 514 692 553T613 614T457 637H319L365 858H438Q503 858 567 870T683 909T766 982T797 1092Q797 1151 758 1192T633 1233Q542 1233 471 1200T346 1133L219 1337Q317 1402 427 1442T698 1483Q834 1483 924 1439T1059 1320T1104 1149Q1104 1048 1063 967T942 831T748 756V748Q858 726 936 653T1014 440Q1014 353 979 271T869 124T678 19T401 -20Z"></glyph><glyph unicode="4" d="M502 0L565 303H-25L23 537L793 1462H1104L909 543H1079L1028 303H858L795 0H502ZM305 543H616L674 791Q685 843 700 904T731 1019T756 1096H745Q723 1056 689 1008T618 915L305 543Z"></glyph><glyph unicode="5" d="M408 -20Q329 -20 258 -10T128 19T27 61V330Q101 288 191 260T379 231Q471 231 534 254T635 315T690 401T707 496Q707 573 659 628T483 684Q422 684 365 673T270 651L166 729L373 1462H1128L1073 1200H584L496 907Q520 912 552 917T623 922Q734 922 823 880T965 752T1018 532Q1018 418 982 318T872 142T682 23T408 -20Z"></glyph><glyph unicode="6" d="M516 -20Q375 -20 280 37T136 203T88 469Q88 588 110 707T174 936T276 1141T412 1305Q479 1365 556 1405T725 1465T930 1485Q993 1485 1053 1477T1153 1458L1102 1212Q1065 1223 1013 1230T911 1237Q775 1237 678 1186T515 1035T408 784H416Q450 832 494 869T597 928T727 950Q878 950 966 856T1055 580Q1055 494 1029 391T942 194T777 40T516 -20ZM530 227Q586 227 628 255T698 331T740 437T754 557Q754 628 720 670T618 713Q560 713 512 683T432 606T391 514Q388 499 387 484T384 453T383 422Q383 380 392 344T421 282T467 242T530 227Z"></glyph><glyph unicode="7" d="M78 0L815 1202H186L242 1462H1217L1176 1268L424 0H78Z"></glyph><glyph unicode="8" d="M514 -20Q362 -20 260 28T106 161T55 350Q55 455 95 535T214 675T403 776Q363 808 325 851T263 950T238 1075Q238 1188 293 1281T456 1429T721 1485Q857 1485 947 1439T1081 1317T1126 1151Q1126 1046 1082 970T967 845T815 766Q869 731 918 682T1000 564T1032 401Q1032 294 977 198T806 41T514 -20ZM537 207Q607 207 651 234T717 306T739 399Q739 456 719 500T664 579T582 643Q505 614 454 577T378 492T352 383Q352 303 402 255T537 207ZM651 893Q709 916 750 947T813 1019T836 1114Q836 1182 797 1221T694 1260Q641 1260 604 1238T548 1178T528 1094Q528 1021 562 973T651 893Z"></glyph><glyph unicode="9" d="M326 -20Q259 -20 193 -10T86 12V268Q124 255 185 241T313 227Q424 227 502 265T631 367T715 510T768 672H760Q727 625 685 590T588 534T465 514Q348 514 272 565T160 704T123 903Q123 968 139 1046T192 1201T293 1343T452 1446T678 1485Q803 1485 896 1435T1040 1278T1092 1001Q1092 893 1075 778T1022 551T935 341T813 170Q770 125 719 90T609 31T479 -7T326 -20ZM567 752Q626 752 671 783T745 861T782 954Q787 977 789 1000T791 1047Q791 1103 776 1146T728 1213T645 1237Q589 1237 548 1209T479 1136T438 1036T424 928Q424 842 462 797T567 752Z"></glyph><glyph unicode=":" d="M362 799Q277 799 242 842T207 940Q207 989 227 1034T292 1109T412 1139Q480 1139 520 1101T561 993Q561 909 507 854T362 799ZM180 -27Q95 -27 60 17T25 115Q25 189 71 251T229 313Q297 313 338 275T379 168Q379 83 325 28T180 -27Z"></glyph><glyph unicode=";" d="M-102 -264Q-66 -183 -32 -94T35 81T92 238H377L385 215Q352 143 310 60T219 -106T123 -264H-102ZM362 799Q277 799 242 842T207 940Q207 989 227 1034T292 1109T412 1139Q480 1139 520 1101T561 993Q561 909 507 854T362 799Z"></glyph><glyph unicode="&lt;" d="M1102 203L109 641V784L1102 1280V1040L418 723L1102 442V203Z"></glyph><glyph unicode="=" d="M109 807V1024H1102V807H109ZM109 418V637H1102V418H109Z"></glyph><glyph unicode="&gt;" d="M109 442L793 723L109 1040V1280L1102 784V641L109 203V442Z"></glyph><glyph unicode="?" d="M260 485Q278 580 307 651T387 781T520 895Q587 940 629 974T691 1041T711 1118Q711 1174 680 1205T578 1237Q505 1237 432 1209T270 1137L178 1358Q270 1408 382 1445T623 1483Q802 1483 904 1395T1006 1151Q1006 1049 967 977T859 847T705 731Q645 691 609 657T553 584T518 485H260ZM313 -27Q228 -27 193 17T158 115Q158 189 204 251T362 313Q430 313 471 275T512 168Q512 83 458 28T313 -27Z"></glyph><glyph unicode="@" d="M801 -186Q626 -186 494 -134T272 12T137 231T92 500Q92 686 142 838T283 1106T495 1302T759 1421T1053 1462Q1265 1462 1417 1389T1651 1176T1733 840Q1733 743 1712 650T1649 477T1547 335T1409 240T1237 205Q1157 205 1098 240T1020 352H1010Q967 285 908 245T754 205Q640 205 563 277T485 514Q485 597 508 678T575 830T684 955T829 1040T1008 1071Q1118 1071 1196 1055T1335 1016L1229 596Q1218 552 1210 520T1202 455Q1202 418 1218 403T1260 387Q1303 387 1341 413T1411 484T1464 587T1499 709T1511 836Q1511 971 1459 1069T1300 1220T1028 1274Q907 1274 799 1240T603 1142T450 985T350 777T315 522Q315 382 366 264T530 75T825 4Q951 4 1054 26T1266 90V-96Q1169 -134 1054 -160T801 -186ZM807 387Q887 387 937 461T1020 657L1077 879Q1059 884 1040 886T995 889Q923 889 870 854T782 762T730 643T713 526Q713 448 741 418T807 387Z"></glyph><glyph unicode="A" d="M-123 0L643 1462H1016L1163 0H866L842 348H369L197 0H-123ZM494 608H827L801 985Q797 1045 793 1106T791 1231H786Q767 1176 742 1121T686 1004L494 608Z"></glyph><glyph unicode="B" d="M53 0L362 1462H788Q928 1462 1032 1430T1193 1326T1251 1137Q1251 1038 1214 962T1105 835T932 762V754Q1032 728 1091 658T1151 477Q1151 311 1075 206T869 50T575 0H53ZM412 256H592Q667 256 723 281T810 355T842 475Q842 552 797 594T659 637H494L412 256ZM545 883H694Q767 883 821 902T906 963T936 1071Q936 1139 894 1173T766 1208H614L545 883Z"></glyph><glyph unicode="C" d="M659 -20Q482 -20 363 50T184 249T123 553Q123 682 152 814T242 1066T395 1281T615 1430T905 1485Q1044 1485 1141 1459T1335 1380L1217 1130Q1146 1171 1072 1199T905 1227Q806 1227 729 1187T597 1079T505 925T452 747T434 569Q434 403 503 322T721 240Q804 240 889 261T1059 317V57Q998 33 896 7T659 -20Z"></glyph><glyph unicode="D" d="M53 0L362 1462H758Q1027 1462 1175 1320T1323 909Q1323 743 1288 602T1186 350T1019 160T790 41T504 0H53ZM412 256H518Q619 256 698 289T836 383T933 523T991 697T1010 893Q1010 1054 935 1131T729 1208H614L412 256Z"></glyph><glyph unicode="E" d="M53 0L362 1462H1180L1126 1208H614L547 887H1024L969 633H492L412 256H924L870 0H53Z"></glyph><glyph unicode="F" d="M53 0L362 1462H1176L1122 1208H614L535 831H1008L952 578H479L358 0H53Z"></glyph><glyph unicode="G" d="M664 -20Q409 -20 266 125T123 549Q123 698 158 837T262 1093T434 1299T674 1436T979 1485Q1092 1485 1191 1461T1389 1386L1274 1135Q1201 1175 1127 1199T965 1223Q830 1223 731 1166T565 1014T467 804T434 573Q434 465 464 391T559 278T729 240Q780 240 818 247T899 264L965 563H698L754 821H1317L1155 59Q1055 25 943 3T664 -20Z"></glyph><glyph unicode="H" d="M53 0L362 1462H668L547 889H1018L1139 1462H1444L1135 0H829L963 631H492L358 0H53Z"></glyph><glyph unicode="I" d="M51 0L362 1462H668L356 0H51Z"></glyph><glyph unicode="J" d="M-135 -430Q-198 -430 -241 -422T-322 -403V-150Q-287 -157 -247 -163T-158 -170Q-92 -170 -43 -143T40 -61T92 82L385 1462H690L387 39Q351 -129 284 -232T113 -382T-135 -430Z"></glyph><glyph unicode="K" d="M53 0L362 1462H668L514 756L670 965L1083 1462H1444L850 762L1141 0H803L592 592L467 522L358 0H53Z"></glyph><glyph unicode="L" d="M53 0L362 1462H668L412 256H924L870 0H53Z"></glyph><glyph unicode="M" d="M53 0L362 1462H766L831 369H840L1389 1462H1812L1503 0H1223L1368 692Q1383 761 1402 840T1441 996T1477 1133H1468L899 0H618L557 1133H549Q544 1089 532 1014T505 852T471 680L328 0H53Z"></glyph><glyph unicode="N" d="M53 0L362 1462H719L1059 385H1067Q1074 428 1085 496T1109 638T1135 770L1282 1462H1556L1247 0H905L549 1106H539Q538 1094 532 1048T516 938T495 807T473 688L328 0H53Z"></glyph><glyph unicode="O" d="M666 -20Q488 -20 368 49T185 243T123 537Q123 651 143 765T205 985T310 1182T460 1341T655 1447T897 1485Q1163 1485 1297 1336T1432 938Q1432 819 1413 702T1353 478T1250 281T1102 123T909 18T666 -20ZM688 240Q748 240 803 262T906 325T993 427T1061 564T1104 733T1120 930Q1120 1065 1058 1146T872 1227Q809 1227 752 1202T646 1131T558 1022T491 882T449 718T434 537Q434 440 464 374T551 274T688 240Z"></glyph><glyph unicode="P" d="M53 0L362 1462H770Q948 1462 1055 1409T1211 1259T1260 1036Q1260 906 1212 809T1078 648T875 552T623 520H467L358 0H53ZM522 774H647Q738 774 806 804T913 891T952 1028Q952 1120 904 1164T758 1208H614L522 774Z"></glyph><glyph unicode="Q" d="M870 -348L692 -20Q686 -20 679 -20T666 -20Q488 -20 368 49T185 243T123 537Q123 651 143 765T205 985T310 1182T460 1341T655 1447T897 1485Q1163 1485 1297 1336T1432 938Q1432 825 1415 715T1361 503T1271 314T1142 158T975 45L1229 -348H870ZM688 240Q748 240 803 262T906 325T993 427T1061 564T1104 733T1120 930Q1120 1065 1058 1146T872 1227Q809 1227 752 1202T646 1131T558 1022T491 882T449 718T434 537Q434 440 464 374T551 274T688 240Z"></glyph><glyph unicode="R" d="M53 0L362 1462H721Q941 1462 1068 1368T1196 1061Q1196 945 1154 858T1040 712T874 621L1135 0H803L596 561H477L358 0H53ZM530 813H608Q673 813 724 827T812 870T866 942T885 1044Q885 1126 837 1167T688 1208H614L530 813Z"></glyph><glyph unicode="S" d="M397 -20Q287 -20 196 4T41 70V344Q132 293 219 265T399 236Q450 236 493 245T569 275T619 325T637 395Q637 452 615 490T553 562T461 633Q400 677 343 733T248 863T211 1038Q211 1136 246 1217T348 1358T506 1450T713 1483Q826 1483 922 1459T1110 1384L1001 1151Q923 1188 853 1206T713 1225Q672 1225 638 1214T578 1181T538 1129T524 1061Q524 1009 545 972T607 904T705 834Q786 781 839 721T919 589T946 432Q946 317 903 232T785 91T610 8T397 -20Z"></glyph><glyph unicode="T" d="M266 0L520 1204H168L223 1462H1233L1178 1204H825L571 0H266Z"></glyph><glyph unicode="U" d="M604 -20Q453 -20 350 31T194 174T141 391Q141 423 144 463T156 539L352 1462H657L463 543Q456 508 451 476T446 418Q446 332 493 286T635 240Q724 240 782 274T877 376T934 545L1128 1462H1434L1233 516Q1200 361 1126 240T924 49T604 -20Z"></glyph><glyph unicode="V" d="M311 0L184 1462H479L530 582Q533 540 533 489T533 388T528 299H537Q551 344 568 391T605 486T647 582L1077 1462H1393L645 0H311Z"></glyph><glyph unicode="W" d="M229 0L184 1462H471L477 664Q477 587 474 492T463 317H471Q499 397 533 488T596 643L965 1462H1235L1255 643Q1257 591 1255 496T1247 317H1255Q1274 374 1296 437T1342 560T1384 666L1714 1462H2023L1376 0H1030L1014 666Q1012 755 1011 813T1010 919T1012 1018H1004Q978 936 950 862T891 719L567 0H229Z"></glyph><glyph unicode="X" d="M-117 0L459 764L221 1462H541L694 944L1057 1462H1401L856 737L1124 0H793L621 543L225 0H-117Z"></glyph><glyph unicode="Y" d="M303 0L422 559L186 1462H498L627 870L1001 1462H1343L725 559L606 0H303Z"></glyph><glyph unicode="Z" d="M-61 0L-23 201L754 1206H211L264 1462H1200L1159 1260L377 256H973L920 0H-61Z"></glyph><glyph unicode="[" d="M-37 -324L344 1462H817L772 1251H557L266 -113H481L436 -324H-37Z"></glyph><glyph unicode="\" d="M438 0L221 1462H481L705 0H438Z"></glyph><glyph unicode="]" d="M-137 -324L-92 -113H121L412 1251H197L242 1462H715L334 -324H-137Z"></glyph><glyph unicode="^" d="M35 520L653 1470H801L1077 520H854L680 1153L279 520H35Z"></glyph><glyph unicode="_" d="M-186 -324L-156 -184H666L635 -324H-186Z"></glyph><glyph unicode="`" d="M539 1241Q497 1282 450 1335T362 1445T297 1548V1569H608Q620 1523 637 1472T676 1369T723 1266V1241H539Z"></glyph><glyph unicode="a" d="M406 -20Q325 -20 253 20T136 149T90 385Q90 495 113 603T181 807T289 978T433 1096T608 1139Q679 1139 732 1119T823 1061T885 975H893L950 1118H1182L944 0H719L733 145H725Q685 96 638 59T534 1T406 -20ZM524 223Q586 223 639 271T730 398T784 563Q792 603 795 643T799 731Q799 802 762 848T659 895Q615 895 576 867T503 789T446 676T408 541T395 399Q395 312 429 268T524 223Z"></glyph><glyph unicode="b" d="M610 -20Q540 -20 487 0T397 57T334 143H326L268 0H37L367 1556H668L606 1268Q597 1227 583 1173T553 1064T522 969H530Q566 1014 605 1053T694 1115T813 1139Q894 1139 966 1099T1083 970T1128 733Q1128 624 1105 516T1037 311T929 140T785 23T610 -20ZM559 223Q603 223 643 251T716 329T773 442T810 577T823 719Q823 807 791 851T692 895Q644 895 605 870T535 803T483 707T447 599T427 491T420 399Q420 320 457 272T559 223Z"></glyph><glyph unicode="c" d="M506 -20Q390 -20 296 21T146 153T90 391Q90 512 115 623T189 828T310 991T475 1100T682 1139Q782 1139 861 1120T1010 1067L918 838Q864 861 812 878T694 895Q623 895 568 854T474 744T415 590T395 416Q395 353 415 310T474 245T567 223Q643 223 708 246T842 305V59Q772 22 691 1T506 -20Z"></glyph><glyph unicode="d" d="M406 -20Q325 -20 253 20T136 149T90 387Q90 496 113 604T181 808T289 979T433 1096T608 1139Q675 1139 721 1117T802 1058T862 975H870Q870 981 873 1019T882 1106T897 1198L973 1556H1274L944 0H715L733 145H725Q685 96 639 59T535 1T406 -20ZM532 223Q579 223 617 248T685 316T736 412T772 520T792 628T799 719Q799 799 762 847T659 895Q615 895 576 867T503 789T446 676T408 541T395 399Q395 312 430 268T532 223Z"></glyph><glyph unicode="e" d="M532 -20Q401 -20 302 27T146 171T90 412Q90 552 130 682T249 916T445 1079T715 1139Q903 1139 996 1054T1090 834Q1090 746 1051 674T931 551T730 472T446 444H395Q394 432 394 423T393 403Q393 313 445 260T592 207Q680 207 752 227T922 293V66Q834 23 743 2T532 -20ZM428 647H473Q589 647 661 672T767 738T801 827Q801 875 774 898T696 922Q640 922 585 887T488 790T428 647Z"></glyph><glyph unicode="f" d="M-45 -492Q-93 -492 -140 -485T-219 -467V-225Q-187 -236 -160 -241T-104 -246Q-43 -246 3 -206T68 -76L272 889H109L139 1034L322 1118L340 1202Q362 1304 398 1374T486 1486T603 1548T752 1567Q821 1567 879 1554T987 1518L907 1294Q878 1307 846 1316T774 1325Q717 1325 682 1285T635 1180L623 1118H842L793 889H573L358 -121Q337 -223 291 -307T163 -442T-45 -492Z"></glyph><glyph unicode="g" d="M326 -492Q118 -492 2 -417T-115 -209Q-115 -107 -47 -34T168 88Q131 111 113 144T94 221Q94 292 138 343T285 442Q220 491 189 554T158 707Q158 803 188 881T276 1015Q337 1075 425 1107T625 1139Q666 1139 708 1133T791 1116H1186L1151 950L977 909Q985 883 989 854T993 791Q993 697 964 621T879 489Q821 431 736 400T543 369Q514 369 489 371T444 379Q402 366 381 347T360 301Q360 278 375 263Q389 250 415 242T479 229L616 211Q725 197 793 165T895 78T928 -57Q928 -166 886 -248T762 -387Q686 -439 576 -465T326 -492ZM344 -287Q427 -287 488 -273T587 -232Q618 -210 633 -181T649 -115Q649 -99 645 -88T631 -67Q612 -47 580 -38T501 -22L365 -6Q295 -15 247 -37T175 -94T150 -172Q150 -230 198 -258T344 -287ZM545 561Q595 561 633 596T692 692T713 831Q713 863 706 886T684 923Q672 936 655 942T614 948Q575 948 544 928T490 871T455 786T442 680Q442 662 444 647T451 619Q473 561 545 561Z"></glyph><glyph unicode="h" d="M37 0L367 1556H668L610 1286Q601 1240 586 1182T553 1067T522 969H530Q571 1020 618 1058T722 1118T844 1139Q940 1139 1004 1100T1101 988T1133 817Q1133 780 1127 734T1110 637L977 0H676L813 653Q821 687 825 717T829 772Q829 835 802 865T721 895Q653 895 598 837T503 680T436 463L338 0H37Z"></glyph><glyph unicode="i" d="M37 0L274 1118H575L338 0H37ZM473 1257Q409 1257 366 1285T322 1380Q322 1438 343 1477T406 1536T504 1556Q564 1556 608 1530T653 1436Q653 1356 609 1307T473 1257Z"></glyph><glyph unicode="j" d="M-90 -492Q-138 -492 -185 -485T-264 -467V-225Q-232 -236 -205 -241T-150 -246Q-109 -246 -75 -229T-15 -173T23 -76L276 1118H578L313 -121Q292 -223 246 -307T118 -442T-90 -492ZM475 1257Q411 1257 368 1285T324 1380Q324 1438 345 1477T408 1536T506 1556Q566 1556 610 1530T655 1436Q655 1356 611 1307T475 1257Z"></glyph><glyph unicode="k" d="M37 0L367 1556H668L520 862Q513 829 501 786T477 705T459 643H467L920 1118H1264L766 614L1051 0H715L532 420L412 348L338 0H37Z"></glyph><glyph unicode="l" d="M37 0L367 1556H668L338 0H37Z"></glyph><glyph unicode="m" d="M37 0L274 1118H504L483 911H492Q535 978 587 1029T702 1109T844 1139Q959 1139 1022 1079T1106 911H1114Q1156 978 1209 1029T1327 1109T1470 1139Q1610 1139 1679 1052T1749 817Q1749 780 1743 734T1726 637L1593 0H1292L1430 653Q1438 687 1442 717T1446 772Q1446 835 1422 865T1348 895Q1296 895 1252 862T1172 770T1109 633T1063 465L967 0H666L803 653Q811 687 815 717T819 772Q819 835 795 865T721 895Q670 895 626 861T546 768T483 630T436 463L338 0H37Z"></glyph><glyph unicode="n" d="M37 0L274 1118H504L483 911H492Q535 978 587 1029T702 1109T844 1139Q940 1139 1004 1100T1101 988T1133 817Q1133 780 1127 734T1110 637L977 0H676L813 653Q821 687 825 717T829 772Q829 835 802 865T721 895Q653 895 598 837T503 680T436 463L338 0H37Z"></glyph><glyph unicode="o" d="M518 -20Q392 -20 296 32T145 180T90 410Q90 529 113 637T184 837T303 996T470 1101T684 1139Q814 1139 909 1087T1056 935T1108 696Q1108 582 1086 477T1017 281T901 123T736 18T518 -20ZM543 225Q593 225 634 250T707 321T760 426T793 555T805 696Q805 753 792 797T747 867T662 893Q607 893 564 863T488 781T435 667T404 538T393 410Q393 319 430 272T543 225Z"></glyph><glyph unicode="p" d="M-68 -492L274 1118H504L487 948H496Q531 996 577 1040T682 1111T813 1139Q894 1139 966 1099T1083 970T1128 731Q1128 622 1105 515T1037 311T929 140T785 23T610 -20Q542 -20 495 1T416 60T356 143H348Q342 62 332 -6T305 -152L233 -492H-68ZM559 223Q603 223 643 251T716 329T773 442T810 577T823 719Q823 807 791 851T692 895Q644 895 605 870T535 803T483 709T447 600T427 492T420 399Q420 320 457 272T559 223Z"></glyph><glyph unicode="q" d="M539 -492L612 -154Q620 -118 634 -64T666 48T696 150H688Q652 104 610 65T514 3T391 -20Q318 -20 249 20T135 149T90 385Q90 495 113 603T181 807T289 978T433 1096T608 1139Q675 1139 724 1119T813 1063T885 975H893L950 1118H1182L840 -492H539ZM535 223Q582 223 620 248T687 316T737 412T772 520T792 628T799 719Q799 799 762 847T659 895Q615 895 576 867T503 789T446 676T408 541T395 399Q395 312 431 268T535 223Z"></glyph><glyph unicode="r" d="M37 0L274 1118H504L483 911H494Q539 982 592 1033T707 1111T842 1139Q866 1139 893 1136T938 1128L872 838Q856 844 830 849T772 854Q716 854 665 832T571 765T496 655T444 500L338 0H37Z"></glyph><glyph unicode="s" d="M358 -20Q251 -20 172 -5T23 45V293Q98 250 177 227T342 203Q389 203 430 216T498 256T524 324Q524 352 511 374T462 422T356 487Q287 526 239 567T165 660T139 782Q139 898 190 977T336 1098T565 1139Q662 1139 752 1117T928 1044L829 829Q770 865 704 889T571 913Q522 913 483 890T444 819Q444 793 458 772T505 728T596 676Q664 641 716 599T799 501T829 369Q829 241 771 155T608 24T358 -20Z"></glyph><glyph unicode="t" d="M410 -20Q277 -20 198 36T119 238Q119 262 122 290T131 350L246 889H94L123 1036L319 1120L451 1356H645L596 1118H879L829 889H547L432 350Q429 335 428 321T426 297Q426 257 450 240T514 223Q555 223 592 232T676 258V33Q628 10 561 -5T410 -20Z"></glyph><glyph unicode="u" d="M395 -20Q299 -20 236 19T142 130T111 301Q111 338 117 396T135 514L262 1118H563L426 465Q419 431 415 401T410 346Q410 283 437 253T518 223Q587 223 641 281T737 438T803 655L901 1118H1202L965 0H735L756 207H745Q702 141 651 90T536 9T395 -20Z"></glyph><glyph unicode="v" d="M240 0L102 1118H397L442 532Q444 507 445 467T448 382T449 301H459Q471 335 486 377T518 459T547 524L844 1118H1167L563 0H240Z"></glyph><glyph unicode="w" d="M176 0L125 1118H406L410 623Q410 541 409 460T399 285H408Q422 336 444 398T486 512T514 582L745 1118H1073V582Q1073 512 1072 440T1063 285H1073Q1088 331 1109 395T1152 521T1192 623L1411 1118H1718L1188 0H858L852 520Q852 562 853 623T856 747T862 860H850Q833 811 812 751T771 635T733 541L500 0H176Z"></glyph><glyph unicode="x" d="M-100 0L379 573L154 1118H475L590 784L834 1118H1188L721 557L965 0H639L514 342L250 0H-100Z"></glyph><glyph unicode="y" d="M6 -492Q-48 -492 -82 -486T-141 -473V-233Q-115 -238 -88 -242T-25 -246Q70 -246 132 -191T240 -49L266 0L102 1118H397L453 600Q458 554 460 502T464 398T465 307H473Q487 341 501 383T535 474T582 580L842 1118H1169L489 -160Q429 -273 355 -347T193 -456T6 -492Z"></glyph><glyph unicode="z" d="M-47 0L-12 180L563 885H166L217 1118H967L924 918L358 233H797L748 0H-47Z"></glyph><glyph unicode="{" d="M473 -324Q289 -324 211 -255T133 -76Q133 -42 137 -11T147 49L186 233Q191 256 196 278T201 319Q201 389 148 424T-8 459L37 688Q159 688 229 729T322 868L383 1153Q406 1256 450 1324T575 1427T784 1462H868L819 1237Q744 1236 698 1209T633 1096L567 799Q543 688 472 633T291 563V555Q375 529 417 473T459 338Q459 312 455 285T444 225L408 47Q404 32 403 20T401 -4Q401 -58 434 -78T526 -98V-324H473Z"></glyph><glyph unicode="|" d="M455 -465V1550H674V-465H455Z"></glyph><glyph unicode="}" d="M-100 -324V-98Q-50 -97 -10 -86T57 -45T96 43L162 340Q187 450 257 506T438 575V584Q354 610 312 666T270 801Q270 827 274 854T285 913L322 1092Q325 1107 326 1119T328 1143Q328 1196 292 1216T182 1237L223 1462H256Q379 1462 454 1431T562 1343T596 1214Q596 1180 592 1150T582 1090L543 905Q539 882 534 860T528 819Q528 750 581 715T737 680L692 451Q611 451 553 433T458 375T408 270L346 -14Q324 -116 279 -185T154 -289T-55 -324H-100Z"></glyph><glyph unicode="~" d="M569 616Q494 648 441 660T342 672Q284 672 222 637T109 551V782Q159 836 222 863T365 891Q424 891 484 880T641 827Q716 795 770 784T868 772Q927 772 989 807T1102 893V662Q1051 608 988 581T846 553Q786 553 726 564T569 616Z"></glyph><glyph unicode=" "></glyph><glyph unicode="¡" d="M-74 -371L182 606H424L266 -371H-74ZM344 778Q277 778 236 816T195 924Q195 1008 248 1063T393 1118Q479 1118 514 1075T549 977Q549 928 529 883T464 808T344 778Z"></glyph><glyph unicode="¢" d="M387 -20L436 190Q316 222 240 316T164 584Q164 695 185 798T249 991T352 1150T494 1266T672 1325L705 1483H893L858 1325Q923 1318 978 1301T1083 1260L991 1030Q938 1053 886 1070T768 1087Q697 1087 642 1046T548 936T489 782T469 608Q469 513 514 465T641 416Q716 416 781 439T915 498V252Q851 218 779 198T616 172L575 -20H387Z"></glyph><glyph unicode="£" d="M-12 0L37 246Q97 261 145 293T229 378T281 510L303 614H111L156 834H348L397 1081Q424 1210 486 1300T644 1438T872 1485Q982 1485 1076 1460T1241 1399L1128 1167Q1069 1196 1008 1215T891 1235Q816 1235 768 1195T700 1063L653 834H952L907 614H608L590 530Q568 429 514 362T381 260H1036L981 0H-12Z"></glyph><glyph unicode="¤" d="M909 254L782 379Q739 356 689 342T586 328Q531 328 481 340T387 379L262 256L117 401L244 526Q218 571 204 620T190 723Q190 777 204 827T244 920L115 1047L262 1194L389 1067Q432 1092 483 1106T586 1120Q639 1120 687 1107T782 1065L909 1194L1059 1051L930 922Q955 880 969 829T983 723Q983 668 970 619T930 524L1055 399L909 254ZM586 535Q639 535 682 560T752 628T778 723Q778 776 752 819T683 887T586 913Q534 913 491 888T423 819T397 723Q397 671 422 628T491 560T586 535Z"></glyph><glyph unicode="¥" d="M293 0L340 221H88L125 399H377L406 537H154L193 715H389L197 1462H494L608 872L979 1462H1290L784 715H987L948 537H696L668 399H920L883 221H631L584 0H293Z"></glyph><glyph unicode="¦" d="M455 735V1550H674V735H455ZM455 -465V350H674V-465H455Z"></glyph><glyph unicode="§" d="M356 -20Q246 -20 163 0T20 55V279Q91 236 179 205T365 174Q463 174 509 209T555 301Q555 329 540 352T490 400T395 453Q318 491 263 535T179 635T150 756Q150 823 175 876T245 974T352 1057Q311 1091 283 1142T254 1249Q254 1352 309 1422T462 1530T684 1567Q784 1567 867 1543T1028 1479L946 1286Q891 1318 821 1344T664 1370Q622 1370 590 1359T539 1325T520 1264Q520 1222 561 1189T688 1118Q769 1083 823 1039T903 940T930 819Q930 744 903 688T831 591T737 520Q775 485 801 435T827 326Q827 214 767 137T601 20T356 -20ZM580 612Q618 637 650 679T682 782Q682 819 662 850T602 909T506 958Q472 942 447 917T407 860T393 793Q393 759 411 730T470 672T580 612Z"></glyph><glyph unicode="¨" d="M926 1272Q871 1272 835 1296T799 1382Q799 1459 838 1499T950 1540Q1001 1540 1038 1517T1075 1432Q1075 1359 1039 1316T926 1272ZM543 1272Q488 1272 452 1296T416 1382Q416 1459 455 1499T567 1540Q601 1540 629 1530T675 1497T692 1432Q692 1359 656 1316T543 1272Z"></glyph><glyph unicode="©" d="M852 -20Q689 -20 552 35T313 192T156 430T100 731Q100 887 156 1023T315 1263T555 1424T852 1483Q1008 1483 1144 1428T1384 1271T1545 1032T1604 731Q1604 568 1549 431T1392 192T1153 36T852 -20ZM883 262Q674 262 571 391T467 731Q467 868 515 973T659 1139T891 1200Q954 1200 1020 1184T1143 1139L1083 1001Q1033 1027 985 1041T893 1055Q772 1055 706 969T639 731Q639 574 697 490T891 406Q938 406 996 419T1106 453V311Q1057 290 1006 276T883 262ZM852 111Q978 111 1088 156T1282 285T1413 481T1460 731Q1460 859 1414 972T1286 1171T1093 1305T852 1354Q721 1354 610 1308T415 1179T286 981T240 731Q240 595 285 482T412 285T606 157T852 111Z"></glyph><glyph unicode="ª" d="M369 748Q313 748 263 773T183 858T152 1016Q152 1083 171 1162T232 1312T339 1429T498 1475Q563 1475 605 1449T676 1372H684L723 1462H877L719 760H571L580 852H571Q534 804 486 776T369 748ZM442 899Q478 899 506 921T556 980T591 1059T611 1142T618 1214Q618 1261 598 1291T530 1321Q490 1321 458 1293T403 1219T368 1119T356 1010Q356 956 377 928T442 899Z"></glyph><glyph unicode="«" d="M274 90L72 551V569L473 1032L664 877L385 543L520 193L274 90ZM762 90L559 551V569L961 1032L1151 877L872 543L1008 193L762 90Z"></glyph><glyph unicode="¬" d="M1102 831V248H883V612H109V831H1102Z"></glyph><glyph unicode="­" d="M41 424L94 674H618L565 424H41Z"></glyph><glyph unicode="®" d="M561 283V1188H834Q1001 1188 1079 1117T1157 913Q1157 816 1108 761T997 680L1235 283H1049L854 627H727V283H561ZM727 764H829Q909 764 949 804T989 909Q989 982 953 1014T827 1047H727V764ZM852 -20Q689 -20 552 35T313 192T156 430T100 731Q100 887 156 1023T315 1263T555 1424T852 1483Q1008 1483 1144 1428T1384 1271T1545 1032T1604 731Q1604 568 1549 431T1392 192T1153 36T852 -20ZM852 111Q978 111 1088 156T1282 285T1413 481T1460 731Q1460 859 1414 972T1286 1171T1093 1305T852 1354Q721 1354 610 1308T415 1179T286 981T240 731Q240 595 285 482T412 285T606 157T852 111Z"></glyph><glyph unicode="¯" d="M178 1556L223 1757H1260L1214 1556H178Z"></glyph><glyph unicode="°" d="M438 793Q333 793 252 836T126 958T80 1137Q80 1237 125 1315T252 1438T438 1483Q544 1483 624 1439T749 1316T795 1137Q795 1036 750 958T624 837T438 793ZM438 983Q503 983 548 1024T594 1137Q594 1211 549 1252T438 1294Q374 1294 329 1253T283 1137Q283 1066 328 1025T438 983Z"></glyph><glyph unicode="±" d="M109 0V219H1102V0H109ZM715 892H1102V673H715V288H496V673H109V892H496V1282H715V892Z"></glyph><glyph unicode="²" d="M115 850L150 1016L422 1235Q488 1288 532 1327T600 1401T623 1473Q623 1514 598 1534T537 1554Q494 1554 448 1534T348 1473L248 1630Q322 1687 404 1717T596 1747Q721 1747 793 1684T866 1524Q866 1439 834 1379T740 1266T586 1145L457 1051H803L762 850H115Z"></glyph><glyph unicode="³" d="M414 834Q338 834 268 849T147 889V1081Q206 1047 269 1029T401 1010Q474 1010 524 1039T575 1128Q575 1166 550 1191T461 1217H334L369 1376H459Q514 1376 554 1388T617 1426T639 1489Q639 1529 613 1549T543 1569Q497 1569 450 1552T354 1503L272 1653Q343 1699 419 1722T586 1745Q690 1745 751 1715T840 1637T868 1534Q868 1430 805 1378T651 1303V1294Q734 1276 769 1231T805 1120Q805 1020 748 957T602 864T414 834Z"></glyph><glyph unicode="´" d="M231 1241V1266Q265 1304 304 1356T382 1465T453 1569H788V1552Q766 1525 724 1484T631 1397T530 1310T440 1241H231Z"></glyph><glyph unicode="µ" d="M-68 -492L274 1118H575L440 473Q433 438 429 406T424 348Q424 288 455 256T535 223Q607 223 661 282T753 438T815 649L913 1118H1214L977 0H752L770 176H760Q723 114 682 70T594 3T494 -20Q443 -20 405 -1T346 47H336Q332 16 327 -22T316 -99T303 -172L236 -492H-68Z"></glyph><glyph unicode="¶" d="M713 -260V559Q682 550 647 546T567 541Q472 541 395 567T262 651T177 806T147 1042Q147 1189 179 1288T272 1446T415 1530T598 1556H1202V-260H1040V1356H874V-260H713Z"></glyph><glyph unicode="·" d="M286 553Q201 553 166 597T131 695Q131 769 177 831T335 893Q403 893 444 855T485 748Q485 663 431 608T286 553Z"></glyph><glyph unicode="¸" d="M-55 -492Q-103 -492 -143 -484T-207 -469V-301Q-185 -308 -151 -316T-82 -324Q-48 -324 -26 -315T8 -287T20 -242Q20 -208 -11 -186T-121 -154L-25 0H160L121 -72Q180 -91 221 -133T262 -250Q262 -318 229 -373T127 -460T-55 -492Z"></glyph><glyph unicode="¹" d="M360 850L444 1247Q458 1310 473 1364T500 1454Q481 1439 458 1422T420 1395L289 1313L186 1479L586 1726H793L606 850H360Z"></glyph><glyph unicode="º" d="M440 748Q307 748 239 823T170 1034Q170 1123 194 1203T266 1344T385 1440T551 1475Q694 1475 755 1394T817 1190Q817 1124 799 1048T739 903T623 792T440 748ZM459 911Q496 911 523 938T569 1009T597 1104T606 1204Q606 1258 587 1284T530 1311Q493 1311 465 1284T418 1212T389 1118T379 1022Q379 965 400 938T459 911Z"></glyph><glyph unicode="»" d="M678 90L487 246L766 580L631 930L877 1032L1079 571V553L678 90ZM190 90L0 246L279 580L143 930L389 1032L592 571V553L190 90Z"></glyph><glyph unicode="¼" d="M220 0L1307 1462H1543L459 0H220ZM319 584L403 981Q417 1044 432 1098T459 1188Q440 1173 417 1156T379 1129L248 1047L145 1213L545 1460H752L565 584H319ZM1210 2L1243 153H870L901 328L1376 885H1636L1516 321H1634L1599 153H1481L1448 2H1210ZM1104 321H1278L1319 485Q1328 527 1336 552T1358 627Q1339 599 1314 568T1272 516L1104 321Z"></glyph><glyph unicode="½" d="M216 0L1303 1462H1539L455 0H216ZM319 584L403 981Q417 1044 432 1098T459 1188Q440 1173 417 1156T379 1129L248 1047L145 1213L545 1460H752L565 584H319ZM987 -2L1022 164L1294 383Q1360 436 1404 475T1472 549T1495 621Q1495 662 1470 682T1409 702Q1366 702 1320 682T1220 621L1120 778Q1194 835 1276 865T1468 895Q1593 895 1665 832T1738 672Q1738 587 1706 527T1612 414T1458 293L1329 199H1675L1634 -2H987Z"></glyph><glyph unicode="¾" d="M363 570Q287 570 217 585T96 625V817Q155 783 218 765T350 746Q423 746 473 775T524 864Q524 902 499 927T410 953H283L318 1112H408Q463 1112 503 1124T566 1162T588 1225Q588 1265 562 1285T492 1305Q446 1305 399 1288T303 1239L221 1389Q292 1435 368 1458T535 1481Q639 1481 700 1451T789 1373T817 1270Q817 1166 754 1114T600 1039V1030Q683 1012 718 967T754 856Q754 756 697 693T551 600T363 570ZM279 0L1366 1462H1602L518 0H279ZM1269 0L1302 151H929L960 326L1435 883H1695L1575 319H1693L1658 151H1540L1507 0H1269ZM1163 319H1337L1378 483Q1387 525 1395 550T1417 625Q1398 597 1373 566T1331 514L1163 319Z"></glyph><glyph unicode="¿" d="M688 609Q671 515 642 444T561 314T428 199Q362 154 320 120T257 53T237 -24Q237 -79 268 -111T370 -143Q443 -143 516 -115T678 -43L770 -264Q678 -314 566 -351T325 -389Q146 -389 44 -301T-58 -57Q-58 46 -19 118T89 248T243 363Q304 403 339 437T395 511T430 609H688ZM635 1121Q721 1121 755 1077T790 979Q790 906 744 844T586 781Q518 781 477 819T436 926Q436 1011 490 1066T635 1121Z"></glyph><glyph unicode="À" d="M-123 0L643 1462H1016L1163 0H866L842 348H369L197 0H-123ZM494 608H827L801 985Q797 1045 793 1106T791 1231H786Q767 1176 742 1121T686 1004L494 608ZM848 1585Q806 1626 759 1679T671 1789T606 1892V1913H917Q929 1867 946 1816T985 1713T1032 1610V1585H848Z"></glyph><glyph unicode="Á" d="M-123 0L643 1462H1016L1163 0H866L842 348H369L197 0H-123ZM494 608H827L801 985Q797 1045 793 1106T791 1231H786Q767 1176 742 1121T686 1004L494 608ZM696 1585V1610Q730 1648 769 1700T847 1809T918 1913H1253V1896Q1231 1869 1189 1828T1096 1741T995 1654T905 1585H696Z"></glyph><glyph unicode="Â" d="M-123 0L643 1462H1016L1163 0H866L842 348H369L197 0H-123ZM494 608H827L801 985Q797 1045 793 1106T791 1231H786Q767 1176 742 1121T686 1004L494 608ZM440 1585V1610Q481 1648 536 1701T646 1811T735 1913H1073Q1094 1865 1124 1810T1188 1703T1249 1610V1585H1051Q1028 1606 999 1634T942 1693T889 1753Q829 1704 773 1664T658 1585H440Z"></glyph><glyph unicode="Ã" d="M-123 0L643 1462H1016L1163 0H866L842 348H369L197 0H-123ZM494 608H827L801 985Q797 1045 793 1106T791 1231H786Q767 1176 742 1121T686 1004L494 608ZM465 1583Q486 1691 525 1759T621 1859T746 1892Q795 1892 834 1877T905 1840T966 1804T1026 1788Q1061 1788 1085 1813T1131 1894H1303Q1280 1785 1240 1717T1143 1617T1016 1585Q967 1585 929 1601T860 1637T799 1674T736 1690Q705 1690 680 1662T641 1583H465Z"></glyph><glyph unicode="Ä" d="M-123 0L643 1462H1016L1163 0H866L842 348H369L197 0H-123ZM494 608H827L801 985Q797 1045 793 1106T791 1231H786Q767 1176 742 1121T686 1004L494 608ZM1065 1616Q1010 1616 974 1640T938 1726Q938 1803 977 1843T1089 1884Q1140 1884 1177 1861T1214 1776Q1214 1703 1178 1660T1065 1616ZM682 1616Q627 1616 591 1640T555 1726Q555 1803 594 1843T706 1884Q740 1884 768 1874T814 1841T831 1776Q831 1703 795 1660T682 1616Z"></glyph><glyph unicode="Å" d="M-123 0L643 1462H1016L1163 0H866L842 348H369L197 0H-123ZM494 608H827L801 985Q797 1045 793 1106T791 1231H786Q767 1176 742 1121T686 1004L494 608ZM884 1583Q774 1583 706 1646T637 1821Q637 1931 705 1994T884 2058Q991 2058 1064 1995T1138 1823Q1138 1711 1065 1647T884 1583ZM884 1724Q926 1724 953 1750T981 1821Q981 1865 954 1891T884 1917Q843 1917 816 1891T788 1821Q788 1776 812 1750T884 1724Z"></glyph><glyph unicode="Æ" d="M-123 0L799 1462H1903L1849 1208H1337L1270 887H1747L1692 633H1214L1135 256H1647L1593 0H776L850 348H424L205 0H-123ZM588 608H905L1032 1208H952L588 608Z"></glyph><glyph unicode="Ç" d="M659 -20Q482 -20 363 50T184 249T123 553Q123 682 152 814T242 1066T395 1281T615 1430T905 1485Q1044 1485 1141 1459T1335 1380L1217 1130Q1146 1171 1072 1199T905 1227Q806 1227 729 1187T597 1079T505 925T452 747T434 569Q434 403 503 322T721 240Q804 240 889 261T1059 317V57Q998 33 896 7T659 -20ZM541 -492Q493 -492 453 -484T389 -469V-301Q411 -308 445 -316T514 -324Q548 -324 570 -315T604 -287T616 -242Q616 -208 585 -186T475 -154L571 0H756L717 -72Q776 -91 817 -133T858 -250Q858 -318 825 -373T723 -460T541 -492Z"></glyph><glyph unicode="È" d="M53 0L362 1462H1180L1126 1208H614L547 887H1024L969 633H492L412 256H924L870 0H53ZM766 1585Q724 1626 677 1679T589 1789T524 1892V1913H835Q847 1867 864 1816T903 1713T950 1610V1585H766Z"></glyph><glyph unicode="É" d="M53 0L362 1462H1180L1126 1208H614L547 887H1024L969 633H492L412 256H924L870 0H53ZM614 1585V1610Q648 1648 687 1700T765 1809T836 1913H1171V1896Q1149 1869 1107 1828T1014 1741T913 1654T823 1585H614Z"></glyph><glyph unicode="Ê" d="M53 0L362 1462H1180L1126 1208H614L547 887H1024L969 633H492L412 256H924L870 0H53ZM358 1585V1610Q399 1648 454 1701T564 1811T653 1913H991Q1012 1865 1042 1810T1106 1703T1167 1610V1585H969Q946 1606 917 1634T860 1693T807 1753Q747 1704 691 1664T576 1585H358Z"></glyph><glyph unicode="Ë" d="M53 0L362 1462H1180L1126 1208H614L547 887H1024L969 633H492L412 256H924L870 0H53ZM983 1616Q928 1616 892 1640T856 1726Q856 1803 895 1843T1007 1884Q1058 1884 1095 1861T1132 1776Q1132 1703 1096 1660T983 1616ZM600 1616Q545 1616 509 1640T473 1726Q473 1803 512 1843T624 1884Q658 1884 686 1874T732 1841T749 1776Q749 1703 713 1660T600 1616Z"></glyph><glyph unicode="Ì" d="M51 0L362 1462H668L356 0H51ZM519 1585Q477 1626 430 1679T342 1789T277 1892V1913H588Q600 1867 617 1816T656 1713T703 1610V1585H519Z"></glyph><glyph unicode="Í" d="M51 0L362 1462H668L356 0H51ZM346 1585V1610Q380 1648 419 1700T497 1809T568 1913H903V1896Q881 1869 839 1828T746 1741T645 1654T555 1585H346Z"></glyph><glyph unicode="Î" d="M51 0L362 1462H668L356 0H51ZM128 1585V1610Q169 1648 224 1701T334 1811T423 1913H761Q782 1865 812 1810T876 1703T937 1610V1585H739Q716 1606 687 1634T630 1693T577 1753Q517 1704 461 1664T346 1585H128Z"></glyph><glyph unicode="Ï" d="M51 0L362 1462H668L356 0H51ZM756 1616Q701 1616 665 1640T629 1726Q629 1803 668 1843T780 1884Q831 1884 868 1861T905 1776Q905 1703 869 1660T756 1616ZM373 1616Q318 1616 282 1640T246 1726Q246 1803 285 1843T397 1884Q431 1884 459 1874T505 1841T522 1776Q522 1703 486 1660T373 1616Z"></glyph><glyph unicode="Ð" d="M53 0L178 596H37L92 850H231L362 1462H758Q1027 1462 1175 1320T1323 909Q1323 743 1288 602T1186 350T1019 160T790 41T504 0H53ZM412 256H518Q619 256 698 289T836 383T933 523T991 697T1010 893Q1010 1054 935 1131T729 1208H614L539 850H776L721 596H483L412 256Z"></glyph><glyph unicode="Ñ" d="M53 0L362 1462H719L1059 385H1067Q1074 428 1085 496T1109 638T1135 770L1282 1462H1556L1247 0H905L549 1106H539Q538 1094 532 1048T516 938T495 807T473 688L328 0H53ZM606 1583Q627 1691 666 1759T762 1859T887 1892Q936 1892 975 1877T1046 1840T1107 1804T1167 1788Q1202 1788 1226 1813T1272 1894H1444Q1421 1785 1381 1717T1284 1617T1157 1585Q1108 1585 1070 1601T1001 1637T940 1674T877 1690Q846 1690 821 1662T782 1583H606Z"></glyph><glyph unicode="Ò" d="M666 -20Q488 -20 368 49T185 243T123 537Q123 651 143 765T205 985T310 1182T460 1341T655 1447T897 1485Q1163 1485 1297 1336T1432 938Q1432 819 1413 702T1353 478T1250 281T1102 123T909 18T666 -20ZM688 240Q748 240 803 262T906 325T993 427T1061 564T1104 733T1120 930Q1120 1065 1058 1146T872 1227Q809 1227 752 1202T646 1131T558 1022T491 882T449 718T434 537Q434 440 464 374T551 274T688 240ZM953 1585Q911 1626 864 1679T776 1789T711 1892V1913H1022Q1034 1867 1051 1816T1090 1713T1137 1610V1585H953Z"></glyph><glyph unicode="Ó" d="M666 -20Q488 -20 368 49T185 243T123 537Q123 651 143 765T205 985T310 1182T460 1341T655 1447T897 1485Q1163 1485 1297 1336T1432 938Q1432 819 1413 702T1353 478T1250 281T1102 123T909 18T666 -20ZM688 240Q748 240 803 262T906 325T993 427T1061 564T1104 733T1120 930Q1120 1065 1058 1146T872 1227Q809 1227 752 1202T646 1131T558 1022T491 882T449 718T434 537Q434 440 464 374T551 274T688 240ZM800 1585V1610Q834 1648 873 1700T951 1809T1022 1913H1357V1896Q1335 1869 1293 1828T1200 1741T1099 1654T1009 1585H800Z"></glyph><glyph unicode="Ô" d="M666 -20Q488 -20 368 49T185 243T123 537Q123 651 143 765T205 985T310 1182T460 1341T655 1447T897 1485Q1163 1485 1297 1336T1432 938Q1432 819 1413 702T1353 478T1250 281T1102 123T909 18T666 -20ZM688 240Q748 240 803 262T906 325T993 427T1061 564T1104 733T1120 930Q1120 1065 1058 1146T872 1227Q809 1227 752 1202T646 1131T558 1022T491 882T449 718T434 537Q434 440 464 374T551 274T688 240ZM544 1585V1610Q585 1648 640 1701T750 1811T839 1913H1177Q1198 1865 1228 1810T1292 1703T1353 1610V1585H1155Q1132 1606 1103 1634T1046 1693T993 1753Q933 1704 877 1664T762 1585H544Z"></glyph><glyph unicode="Õ" d="M666 -20Q488 -20 368 49T185 243T123 537Q123 651 143 765T205 985T310 1182T460 1341T655 1447T897 1485Q1163 1485 1297 1336T1432 938Q1432 819 1413 702T1353 478T1250 281T1102 123T909 18T666 -20ZM688 240Q748 240 803 262T906 325T993 427T1061 564T1104 733T1120 930Q1120 1065 1058 1146T872 1227Q809 1227 752 1202T646 1131T558 1022T491 882T449 718T434 537Q434 440 464 374T551 274T688 240ZM569 1583Q590 1691 629 1759T725 1859T850 1892Q899 1892 938 1877T1009 1840T1070 1804T1130 1788Q1165 1788 1189 1813T1235 1894H1407Q1384 1785 1344 1717T1247 1617T1120 1585Q1071 1585 1033 1601T964 1637T903 1674T840 1690Q809 1690 784 1662T745 1583H569Z"></glyph><glyph unicode="Ö" d="M666 -20Q488 -20 368 49T185 243T123 537Q123 651 143 765T205 985T310 1182T460 1341T655 1447T897 1485Q1163 1485 1297 1336T1432 938Q1432 819 1413 702T1353 478T1250 281T1102 123T909 18T666 -20ZM688 240Q748 240 803 262T906 325T993 427T1061 564T1104 733T1120 930Q1120 1065 1058 1146T872 1227Q809 1227 752 1202T646 1131T558 1022T491 882T449 718T434 537Q434 440 464 374T551 274T688 240ZM1170 1616Q1115 1616 1079 1640T1043 1726Q1043 1803 1082 1843T1194 1884Q1245 1884 1282 1861T1319 1776Q1319 1703 1283 1660T1170 1616ZM787 1616Q732 1616 696 1640T660 1726Q660 1803 699 1843T811 1884Q845 1884 873 1874T919 1841T936 1776Q936 1703 900 1660T787 1616Z"></glyph><glyph unicode="×" d="M907 1178L1061 1028L756 723L1057 420L907 268L602 569L301 270L152 422L449 723L150 1024L301 1178L602 879L907 1178Z"></glyph><glyph unicode="Ø" d="M254 -86L100 29L221 180Q172 249 148 340T123 537Q123 651 143 765T205 985T310 1182T460 1341T655 1447T897 1485Q989 1485 1065 1466T1202 1409L1307 1540L1458 1423L1341 1278Q1388 1209 1410 1124T1432 938Q1432 819 1413 702T1353 478T1250 281T1102 123T909 18T666 -20Q575 -20 500 -2T362 51L254 -86ZM692 233Q754 233 810 255T916 320T1005 424T1073 562T1117 732T1133 930Q1133 947 1132 970T1128 1010L539 270Q566 254 606 244T692 233ZM432 436L1028 1190Q999 1208 960 1220T870 1233Q803 1233 744 1208T635 1136T546 1025T480 884T438 719T424 537Q424 514 426 488T432 436Z"></glyph><glyph unicode="Ù" d="M604 -20Q453 -20 350 31T194 174T141 391Q141 423 144 463T156 539L352 1462H657L463 543Q456 508 451 476T446 418Q446 332 493 286T635 240Q724 240 782 274T877 376T934 545L1128 1462H1434L1233 516Q1200 361 1126 240T924 49T604 -20ZM906 1585Q864 1626 817 1679T729 1789T664 1892V1913H975Q987 1867 1004 1816T1043 1713T1090 1610V1585H906Z"></glyph><glyph unicode="Ú" d="M604 -20Q453 -20 350 31T194 174T141 391Q141 423 144 463T156 539L352 1462H657L463 543Q456 508 451 476T446 418Q446 332 493 286T635 240Q724 240 782 274T877 376T934 545L1128 1462H1434L1233 516Q1200 361 1126 240T924 49T604 -20ZM753 1585V1610Q787 1648 826 1700T904 1809T975 1913H1310V1896Q1288 1869 1246 1828T1153 1741T1052 1654T962 1585H753Z"></glyph><glyph unicode="Û" d="M604 -20Q453 -20 350 31T194 174T141 391Q141 423 144 463T156 539L352 1462H657L463 543Q456 508 451 476T446 418Q446 332 493 286T635 240Q724 240 782 274T877 376T934 545L1128 1462H1434L1233 516Q1200 361 1126 240T924 49T604 -20ZM497 1585V1610Q538 1648 593 1701T703 1811T792 1913H1130Q1151 1865 1181 1810T1245 1703T1306 1610V1585H1108Q1085 1606 1056 1634T999 1693T946 1753Q886 1704 830 1664T715 1585H497Z"></glyph><glyph unicode="Ü" d="M604 -20Q453 -20 350 31T194 174T141 391Q141 423 144 463T156 539L352 1462H657L463 543Q456 508 451 476T446 418Q446 332 493 286T635 240Q724 240 782 274T877 376T934 545L1128 1462H1434L1233 516Q1200 361 1126 240T924 49T604 -20ZM1123 1616Q1068 1616 1032 1640T996 1726Q996 1803 1035 1843T1147 1884Q1198 1884 1235 1861T1272 1776Q1272 1703 1236 1660T1123 1616ZM740 1616Q685 1616 649 1640T613 1726Q613 1803 652 1843T764 1884Q798 1884 826 1874T872 1841T889 1776Q889 1703 853 1660T740 1616Z"></glyph><glyph unicode="Ý" d="M303 0L422 559L186 1462H498L627 870L1001 1462H1343L725 559L606 0H303ZM610 1585V1610Q644 1648 683 1700T761 1809T832 1913H1167V1896Q1145 1869 1103 1828T1010 1741T909 1654T819 1585H610Z"></glyph><glyph unicode="Þ" d="M53 0L362 1462H668L618 1233H702Q881 1233 988 1180T1144 1030T1192 807Q1192 677 1144 580T1010 420T807 325T555 293H420L358 0H53ZM475 547H580Q671 547 739 576T846 662T885 799Q885 891 836 935T690 979H567L475 547Z"></glyph><glyph unicode="ß" d="M-100 -492Q-137 -492 -183 -485T-260 -467V-225Q-228 -236 -201 -241T-145 -246Q-83 -246 -39 -206T25 -68L279 1139Q310 1285 377 1379T560 1520T846 1567Q1056 1567 1178 1477T1300 1237Q1300 1151 1275 1090T1199 983T1073 893Q1021 862 988 835T954 770Q954 755 963 739T995 701T1055 651Q1138 588 1187 521T1237 350Q1237 244 1185 160T1031 28T776 -20Q682 -20 609 -5T479 41V281Q535 247 601 225T737 203Q838 203 885 236T932 322Q932 351 920 374T879 426T797 494Q718 553 676 612T633 750Q633 818 659 865T732 950T840 1022Q884 1047 916 1072T965 1126T983 1194Q983 1256 944 1292T819 1329Q737 1329 689 1298T615 1216T578 1106L324 -113Q300 -224 252 -309T118 -443T-100 -492Z"></glyph><glyph unicode="à" d="M406 -20Q325 -20 253 20T136 149T90 385Q90 495 113 603T181 807T289 978T433 1096T608 1139Q679 1139 732 1119T823 1061T885 975H893L950 1118H1182L944 0H719L733 145H725Q685 96 638 59T534 1T406 -20ZM524 223Q586 223 639 271T730 398T784 563Q792 603 795 643T799 731Q799 802 762 848T659 895Q615 895 576 867T503 789T446 676T408 541T395 399Q395 312 429 268T524 223ZM740 1241Q698 1282 651 1335T563 1445T498 1548V1569H809Q821 1523 838 1472T877 1369T924 1266V1241H740Z"></glyph><glyph unicode="á" d="M406 -20Q325 -20 253 20T136 149T90 385Q90 495 113 603T181 807T289 978T433 1096T608 1139Q679 1139 732 1119T823 1061T885 975H893L950 1118H1182L944 0H719L733 145H725Q685 96 638 59T534 1T406 -20ZM524 223Q586 223 639 271T730 398T784 563Q792 603 795 643T799 731Q799 802 762 848T659 895Q615 895 576 867T503 789T446 676T408 541T395 399Q395 312 429 268T524 223ZM587 1241V1266Q621 1304 660 1356T738 1465T809 1569H1144V1552Q1122 1525 1080 1484T987 1397T886 1310T796 1241H587Z"></glyph><glyph unicode="â" d="M406 -20Q325 -20 253 20T136 149T90 385Q90 495 113 603T181 807T289 978T433 1096T608 1139Q679 1139 732 1119T823 1061T885 975H893L950 1118H1182L944 0H719L733 145H725Q685 96 638 59T534 1T406 -20ZM524 223Q586 223 639 271T730 398T784 563Q792 603 795 643T799 731Q799 802 762 848T659 895Q615 895 576 867T503 789T446 676T408 541T395 399Q395 312 429 268T524 223ZM331 1241V1266Q372 1304 427 1357T537 1467T626 1569H964Q985 1521 1015 1466T1079 1359T1140 1266V1241H942Q919 1262 890 1290T833 1349T780 1409Q720 1360 664 1320T549 1241H331Z"></glyph><glyph unicode="ã" d="M406 -20Q325 -20 253 20T136 149T90 385Q90 495 113 603T181 807T289 978T433 1096T608 1139Q679 1139 732 1119T823 1061T885 975H893L950 1118H1182L944 0H719L733 145H725Q685 96 638 59T534 1T406 -20ZM524 223Q586 223 639 271T730 398T784 563Q792 603 795 643T799 731Q799 802 762 848T659 895Q615 895 576 867T503 789T446 676T408 541T395 399Q395 312 429 268T524 223ZM356 1239Q377 1347 416 1415T512 1515T637 1548Q686 1548 725 1533T796 1496T857 1460T917 1444Q952 1444 976 1469T1022 1550H1194Q1171 1441 1131 1373T1034 1273T907 1241Q858 1241 820 1257T751 1293T690 1330T627 1346Q596 1346 571 1318T532 1239H356Z"></glyph><glyph unicode="ä" d="M406 -20Q325 -20 253 20T136 149T90 385Q90 495 113 603T181 807T289 978T433 1096T608 1139Q679 1139 732 1119T823 1061T885 975H893L950 1118H1182L944 0H719L733 145H725Q685 96 638 59T534 1T406 -20ZM524 223Q586 223 639 271T730 398T784 563Q792 603 795 643T799 731Q799 802 762 848T659 895Q615 895 576 867T503 789T446 676T408 541T395 399Q395 312 429 268T524 223ZM957 1272Q902 1272 866 1296T830 1382Q830 1459 869 1499T981 1540Q1032 1540 1069 1517T1106 1432Q1106 1359 1070 1316T957 1272ZM574 1272Q519 1272 483 1296T447 1382Q447 1459 486 1499T598 1540Q632 1540 660 1530T706 1497T723 1432Q723 1359 687 1316T574 1272Z"></glyph><glyph unicode="å" d="M406 -20Q325 -20 253 20T136 149T90 385Q90 495 113 603T181 807T289 978T433 1096T608 1139Q679 1139 732 1119T823 1061T885 975H893L950 1118H1182L944 0H719L733 145H725Q685 96 638 59T534 1T406 -20ZM524 223Q586 223 639 271T730 398T784 563Q792 603 795 643T799 731Q799 802 762 848T659 895Q615 895 576 867T503 789T446 676T408 541T395 399Q395 312 429 268T524 223ZM776 1239Q666 1239 598 1302T529 1477Q529 1587 597 1650T776 1714Q883 1714 956 1651T1030 1479Q1030 1367 957 1303T776 1239ZM776 1380Q818 1380 845 1406T873 1477Q873 1521 846 1547T776 1573Q735 1573 708 1547T680 1477Q680 1432 704 1406T776 1380Z"></glyph><glyph unicode="æ" d="M399 -20Q307 -20 238 26T129 163T90 385Q90 502 114 613T183 819T292 986T433 1098T602 1139Q671 1139 720 1120T805 1065T872 975H883L940 1118H1128L1110 1028Q1158 1082 1236 1110T1399 1139Q1560 1139 1647 1054T1735 834Q1735 746 1696 674T1576 551T1376 472T1092 444H1040Q1039 432 1039 425T1038 406Q1038 326 1085 267T1253 207Q1329 207 1414 232T1567 293V66Q1488 29 1396 5T1206 -20Q1097 -20 1027 7T909 94L893 0H705L719 145H709Q669 96 625 59T525 1T399 -20ZM518 223Q562 223 600 247T670 313T726 410T766 530Q777 575 782 623T788 719Q788 799 755 847T653 895Q608 895 569 867T497 789T442 676T407 541T395 399Q395 304 432 264T518 223ZM1073 647H1118Q1234 647 1306 672T1412 738T1446 827Q1446 875 1419 898T1341 922Q1285 922 1230 887T1133 790T1073 647Z"></glyph><glyph unicode="ç" d="M506 -20Q390 -20 296 21T146 153T90 391Q90 512 115 623T189 828T310 991T475 1100T682 1139Q782 1139 861 1120T1010 1067L918 838Q864 861 812 878T694 895Q623 895 568 854T474 744T415 590T395 416Q395 353 415 310T474 245T567 223Q643 223 708 246T842 305V59Q772 22 691 1T506 -20ZM351 -492Q303 -492 263 -484T199 -469V-301Q221 -308 255 -316T324 -324Q358 -324 380 -315T414 -287T426 -242Q426 -208 395 -186T285 -154L381 0H566L527 -72Q586 -91 627 -133T668 -250Q668 -318 635 -373T533 -460T351 -492Z"></glyph><glyph unicode="è" d="M532 -20Q401 -20 302 27T146 171T90 412Q90 552 130 682T249 916T445 1079T715 1139Q903 1139 996 1054T1090 834Q1090 746 1051 674T931 551T730 472T446 444H395Q394 432 394 423T393 403Q393 313 445 260T592 207Q680 207 752 227T922 293V66Q834 23 743 2T532 -20ZM428 647H473Q589 647 661 672T767 738T801 827Q801 875 774 898T696 922Q640 922 585 887T488 790T428 647ZM715 1241Q673 1282 626 1335T538 1445T473 1548V1569H784Q796 1523 813 1472T852 1369T899 1266V1241H715Z"></glyph><glyph unicode="é" d="M532 -20Q401 -20 302 27T146 171T90 412Q90 552 130 682T249 916T445 1079T715 1139Q903 1139 996 1054T1090 834Q1090 746 1051 674T931 551T730 472T446 444H395Q394 432 394 423T393 403Q393 313 445 260T592 207Q680 207 752 227T922 293V66Q834 23 743 2T532 -20ZM428 647H473Q589 647 661 672T767 738T801 827Q801 875 774 898T696 922Q640 922 585 887T488 790T428 647ZM564 1241V1266Q598 1304 637 1356T715 1465T786 1569H1121V1552Q1099 1525 1057 1484T964 1397T863 1310T773 1241H564Z"></glyph><glyph unicode="ê" d="M532 -20Q401 -20 302 27T146 171T90 412Q90 552 130 682T249 916T445 1079T715 1139Q903 1139 996 1054T1090 834Q1090 746 1051 674T931 551T730 472T446 444H395Q394 432 394 423T393 403Q393 313 445 260T592 207Q680 207 752 227T922 293V66Q834 23 743 2T532 -20ZM428 647H473Q589 647 661 672T767 738T801 827Q801 875 774 898T696 922Q640 922 585 887T488 790T428 647ZM307 1241V1266Q348 1304 403 1357T513 1467T602 1569H940Q961 1521 991 1466T1055 1359T1116 1266V1241H918Q895 1262 866 1290T809 1349T756 1409Q696 1360 640 1320T525 1241H307Z"></glyph><glyph unicode="ë" d="M532 -20Q401 -20 302 27T146 171T90 412Q90 552 130 682T249 916T445 1079T715 1139Q903 1139 996 1054T1090 834Q1090 746 1051 674T931 551T730 472T446 444H395Q394 432 394 423T393 403Q393 313 445 260T592 207Q680 207 752 227T922 293V66Q834 23 743 2T532 -20ZM428 647H473Q589 647 661 672T767 738T801 827Q801 875 774 898T696 922Q640 922 585 887T488 790T428 647ZM932 1272Q877 1272 841 1296T805 1382Q805 1459 844 1499T956 1540Q1007 1540 1044 1517T1081 1432Q1081 1359 1045 1316T932 1272ZM549 1272Q494 1272 458 1296T422 1382Q422 1459 461 1499T573 1540Q607 1540 635 1530T681 1497T698 1432Q698 1359 662 1316T549 1272Z"></glyph><glyph unicode="ì" d="M37 0L274 1118H575L338 0H37ZM693 1241Q651 1282 604 1335T516 1445T451 1548V1569H762Q774 1523 791 1472T830 1369T877 1266V1241H693Z"></glyph><glyph unicode="í" d="M37 0L274 1118H575L338 0H37ZM284 1241V1266Q318 1304 357 1356T435 1465T506 1569H841V1552Q819 1525 777 1484T684 1397T583 1310T493 1241H284Z"></glyph><glyph unicode="î" d="M37 0L274 1118H575L338 0H37ZM28 1241V1266Q69 1304 124 1357T234 1467T323 1569H661Q682 1521 712 1466T776 1359T837 1266V1241H639Q616 1262 587 1290T530 1349T477 1409Q417 1360 361 1320T246 1241H28Z"></glyph><glyph unicode="ï" d="M37 0L274 1118H575L338 0H37ZM654 1272Q599 1272 563 1296T527 1382Q527 1459 566 1499T678 1540Q729 1540 766 1517T803 1432Q803 1359 767 1316T654 1272ZM271 1272Q216 1272 180 1296T144 1382Q144 1459 183 1499T295 1540Q329 1540 357 1530T403 1497T420 1432Q420 1359 384 1316T271 1272Z"></glyph><glyph unicode="ð" d="M514 -20Q385 -20 286 23T129 161T72 406Q72 524 106 630T206 819T366 948T582 995Q683 995 746 958T844 870H854Q847 953 821 1034T737 1171L506 1040L418 1188L618 1300Q596 1323 564 1342T494 1380L612 1567Q680 1536 740 1500T844 1427L1081 1559L1157 1407L965 1300Q1019 1230 1051 1151T1096 984T1110 795Q1110 662 1088 541T1021 317T906 140T738 22T514 -20ZM528 205Q572 205 609 227T677 289T728 380T760 488T772 602Q772 637 763 667T736 721T691 757T625 770Q563 770 516 736T438 644T391 517T375 377Q375 297 414 251T528 205Z"></glyph><glyph unicode="ñ" d="M37 0L274 1118H504L483 911H492Q535 978 587 1029T702 1109T844 1139Q940 1139 1004 1100T1101 988T1133 817Q1133 780 1127 734T1110 637L977 0H676L813 653Q821 687 825 717T829 772Q829 835 802 865T721 895Q653 895 598 837T503 680T436 463L338 0H37ZM370 1239Q391 1347 430 1415T526 1515T651 1548Q700 1548 739 1533T810 1496T871 1460T931 1444Q966 1444 990 1469T1036 1550H1208Q1185 1441 1145 1373T1048 1273T921 1241Q872 1241 834 1257T765 1293T704 1330T641 1346Q610 1346 585 1318T546 1239H370Z"></glyph><glyph unicode="ò" d="M518 -20Q392 -20 296 32T145 180T90 410Q90 529 113 637T184 837T303 996T470 1101T684 1139Q814 1139 909 1087T1056 935T1108 696Q1108 582 1086 477T1017 281T901 123T736 18T518 -20ZM543 225Q593 225 634 250T707 321T760 426T793 555T805 696Q805 753 792 797T747 867T662 893Q607 893 564 863T488 781T435 667T404 538T393 410Q393 319 430 272T543 225ZM715 1241Q673 1282 626 1335T538 1445T473 1548V1569H784Q796 1523 813 1472T852 1369T899 1266V1241H715Z"></glyph><glyph unicode="ó" d="M518 -20Q392 -20 296 32T145 180T90 410Q90 529 113 637T184 837T303 996T470 1101T684 1139Q814 1139 909 1087T1056 935T1108 696Q1108 582 1086 477T1017 281T901 123T736 18T518 -20ZM543 225Q593 225 634 250T707 321T760 426T793 555T805 696Q805 753 792 797T747 867T662 893Q607 893 564 863T488 781T435 667T404 538T393 410Q393 319 430 272T543 225ZM563 1241V1266Q597 1304 636 1356T714 1465T785 1569H1120V1552Q1098 1525 1056 1484T963 1397T862 1310T772 1241H563Z"></glyph><glyph unicode="ô" d="M518 -20Q392 -20 296 32T145 180T90 410Q90 529 113 637T184 837T303 996T470 1101T684 1139Q814 1139 909 1087T1056 935T1108 696Q1108 582 1086 477T1017 281T901 123T736 18T518 -20ZM543 225Q593 225 634 250T707 321T760 426T793 555T805 696Q805 753 792 797T747 867T662 893Q607 893 564 863T488 781T435 667T404 538T393 410Q393 319 430 272T543 225ZM307 1241V1266Q348 1304 403 1357T513 1467T602 1569H940Q961 1521 991 1466T1055 1359T1116 1266V1241H918Q895 1262 866 1290T809 1349T756 1409Q696 1360 640 1320T525 1241H307Z"></glyph><glyph unicode="õ" d="M518 -20Q392 -20 296 32T145 180T90 410Q90 529 113 637T184 837T303 996T470 1101T684 1139Q814 1139 909 1087T1056 935T1108 696Q1108 582 1086 477T1017 281T901 123T736 18T518 -20ZM543 225Q593 225 634 250T707 321T760 426T793 555T805 696Q805 753 792 797T747 867T662 893Q607 893 564 863T488 781T435 667T404 538T393 410Q393 319 430 272T543 225ZM331 1239Q352 1347 391 1415T487 1515T612 1548Q661 1548 700 1533T771 1496T832 1460T892 1444Q927 1444 951 1469T997 1550H1169Q1146 1441 1106 1373T1009 1273T882 1241Q833 1241 795 1257T726 1293T665 1330T602 1346Q571 1346 546 1318T507 1239H331Z"></glyph><glyph unicode="ö" d="M518 -20Q392 -20 296 32T145 180T90 410Q90 529 113 637T184 837T303 996T470 1101T684 1139Q814 1139 909 1087T1056 935T1108 696Q1108 582 1086 477T1017 281T901 123T736 18T518 -20ZM543 225Q593 225 634 250T707 321T760 426T793 555T805 696Q805 753 792 797T747 867T662 893Q607 893 564 863T488 781T435 667T404 538T393 410Q393 319 430 272T543 225ZM932 1272Q877 1272 841 1296T805 1382Q805 1459 844 1499T956 1540Q1007 1540 1044 1517T1081 1432Q1081 1359 1045 1316T932 1272ZM549 1272Q494 1272 458 1296T422 1382Q422 1459 461 1499T573 1540Q607 1540 635 1530T681 1497T698 1432Q698 1359 662 1316T549 1272Z"></glyph><glyph unicode="÷" d="M109 612V831H1102V612H109ZM604 221Q547 221 506 257T465 373Q465 457 506 490T604 524Q660 524 701 491T743 373Q743 293 702 257T604 221ZM604 920Q547 920 506 956T465 1071Q465 1156 506 1189T604 1223Q660 1223 701 1190T743 1071Q743 992 702 956T604 920Z"></glyph><glyph unicode="ø" d="M184 -102L43 6L162 154Q127 206 109 270T90 410Q90 529 113 637T184 837T303 996T470 1101T684 1139Q749 1139 806 1125T911 1083L981 1171L1126 1061L1042 956Q1074 904 1091 839T1108 696Q1108 582 1086 477T1017 281T901 123T736 18T518 -20Q455 -20 398 -6T293 33L184 -102ZM543 215Q599 215 641 242T715 315T766 417T798 531T813 641Q815 652 815 662T815 682L457 238Q468 230 492 223T543 215ZM385 426L750 879Q737 888 713 895T662 903Q603 903 559 877T484 805T432 704T402 589T387 475Q386 463 386 451T385 426Z"></glyph><glyph unicode="ù" d="M395 -20Q299 -20 236 19T142 130T111 301Q111 338 117 396T135 514L262 1118H563L426 465Q419 431 415 401T410 346Q410 283 437 253T518 223Q587 223 641 281T737 438T803 655L901 1118H1202L965 0H735L756 207H745Q702 141 651 90T536 9T395 -20ZM750 1241Q708 1282 661 1335T573 1445T508 1548V1569H819Q831 1523 848 1472T887 1369T934 1266V1241H750Z"></glyph><glyph unicode="ú" d="M395 -20Q299 -20 236 19T142 130T111 301Q111 338 117 396T135 514L262 1118H563L426 465Q419 431 415 401T410 346Q410 283 437 253T518 223Q587 223 641 281T737 438T803 655L901 1118H1202L965 0H735L756 207H745Q702 141 651 90T536 9T395 -20ZM598 1241V1266Q632 1304 671 1356T749 1465T820 1569H1155V1552Q1133 1525 1091 1484T998 1397T897 1310T807 1241H598Z"></glyph><glyph unicode="û" d="M395 -20Q299 -20 236 19T142 130T111 301Q111 338 117 396T135 514L262 1118H563L426 465Q419 431 415 401T410 346Q410 283 437 253T518 223Q587 223 641 281T737 438T803 655L901 1118H1202L965 0H735L756 207H745Q702 141 651 90T536 9T395 -20ZM342 1241V1266Q383 1304 438 1357T548 1467T637 1569H975Q996 1521 1026 1466T1090 1359T1151 1266V1241H953Q930 1262 901 1290T844 1349T791 1409Q731 1360 675 1320T560 1241H342Z"></glyph><glyph unicode="ü" d="M395 -20Q299 -20 236 19T142 130T111 301Q111 338 117 396T135 514L262 1118H563L426 465Q419 431 415 401T410 346Q410 283 437 253T518 223Q587 223 641 281T737 438T803 655L901 1118H1202L965 0H735L756 207H745Q702 141 651 90T536 9T395 -20ZM967 1272Q912 1272 876 1296T840 1382Q840 1459 879 1499T991 1540Q1042 1540 1079 1517T1116 1432Q1116 1359 1080 1316T967 1272ZM584 1272Q529 1272 493 1296T457 1382Q457 1459 496 1499T608 1540Q642 1540 670 1530T716 1497T733 1432Q733 1359 697 1316T584 1272Z"></glyph><glyph unicode="ý" d="M6 -492Q-48 -492 -82 -486T-141 -473V-233Q-115 -238 -88 -242T-25 -246Q70 -246 132 -191T240 -49L266 0L102 1118H397L453 600Q458 554 460 502T464 398T465 307H473Q487 341 501 383T535 474T582 580L842 1118H1169L489 -160Q429 -273 355 -347T193 -456T6 -492ZM472 1241V1266Q506 1304 545 1356T623 1465T694 1569H1029V1552Q1007 1525 965 1484T872 1397T771 1310T681 1241H472Z"></glyph><glyph unicode="þ" d="M-68 -492L367 1556H668L602 1249Q589 1185 566 1107T522 969H530Q573 1025 619 1063T714 1120T813 1139Q953 1139 1040 1039T1128 731Q1128 633 1109 528T1050 326T950 150T810 26T627 -20Q558 -20 508 1T420 60T356 143H348Q342 62 332 -6T305 -152L233 -492H-68ZM559 223Q606 223 647 251T720 329T776 442T811 577T823 719Q823 807 786 851T682 895Q619 895 570 848T486 724T434 559Q428 519 424 479T420 399Q420 320 453 272T559 223Z"></glyph><glyph unicode="ÿ" d="M6 -492Q-48 -492 -82 -486T-141 -473V-233Q-115 -238 -88 -242T-25 -246Q70 -246 132 -191T240 -49L266 0L102 1118H397L453 600Q458 554 460 502T464 398T465 307H473Q487 341 501 383T535 474T582 580L842 1118H1169L489 -160Q429 -273 355 -347T193 -456T6 -492ZM1098 1272Q1043 1272 1007 1296T971 1382Q971 1459 1010 1499T1122 1540Q1173 1540 1210 1517T1247 1432Q1247 1359 1211 1316T1098 1272ZM715 1272Q660 1272 624 1296T588 1382Q588 1459 627 1499T739 1540Q773 1540 801 1530T847 1497T864 1432Q864 1359 828 1316T715 1272Z"></glyph><glyph unicode="–" d="M41 436L90 666H942L893 436H41Z"></glyph><glyph unicode="—" d="M41 436L90 666H1925L1876 436H41Z"></glyph><glyph unicode="‘" d="M123 961L115 983Q147 1054 189 1136T280 1302T377 1462H602Q576 1401 550 1336T498 1204T450 1076T408 961H123Z"></glyph><glyph unicode="’" d="M106 961Q141 1042 176 1131T243 1306T301 1462H586L594 1440Q562 1369 519 1287T428 1121T332 961H106Z"></glyph><glyph unicode="‚" d="M-102 -264Q-67 -183 -32 -94T35 81T92 238H377L385 215Q354 145 311 63T220 -104T123 -264H-102Z"></glyph><glyph unicode="“" d="M569 961L561 983Q593 1054 636 1136T727 1302T823 1462H1049Q1014 1381 979 1292T912 1118T854 961H569ZM123 961L115 983Q147 1054 189 1136T280 1302T377 1462H602Q576 1401 550 1336T498 1204T450 1076T408 961H123Z"></glyph><glyph unicode="”" d="M553 961Q588 1042 623 1131T690 1306T748 1462H1032L1040 1440Q1009 1369 966 1287T875 1121T778 961H553ZM106 961Q141 1042 176 1131T243 1306T301 1462H586L594 1440Q562 1369 519 1287T428 1121T332 961H106Z"></glyph><glyph unicode="„" d="M346 -264Q381 -183 416 -94T483 81T541 238H825L834 215Q802 145 759 63T668 -104T571 -264H346ZM-102 -264Q-67 -183 -32 -94T35 81T92 238H377L385 215Q354 145 311 63T220 -104T123 -264H-102Z"></glyph><glyph unicode="•" d="M426 430Q305 430 222 504T139 748Q139 863 177 932T280 1033T426 1065Q505 1065 570 1034T674 933T713 748Q713 635 674 565T570 463T426 430Z"></glyph><glyph unicode="‹" d="M274 90L72 551V569L473 1032L664 877L385 543L520 193L274 90Z"></glyph><glyph unicode="›" d="M190 90L0 246L279 580L143 930L389 1032L592 571V553L190 90Z"></glyph></font>
</defs>
</svg>
