<?xml version="1.0" encoding="UTF-8" standalone="no"?> <svg xmlns="http://www.w3.org/2000/svg"><defs><font id="OpenSans"><glyph unicode=" "></glyph><glyph unicode="!" d="M150 446L328 1462H599L346 446H150ZM163 -27Q96 -27 66 8T35 96Q35 163 75 218T209 273Q265 273 298 241T332 149Q332 78 288 26T163 -27Z"></glyph><glyph unicode="&quot;" d="M586 934L661 1462H890L739 934H586ZM212 934L286 1462H515L364 934H212Z"></glyph><glyph unicode="#" d="M184 0L301 420H52L67 586H348L434 874H169L184 1040H478L600 1462H777L655 1040H907L1029 1462H1201L1081 1040H1333L1317 874H1033L949 586H1220L1205 420H902L782 0H603L727 420H478L357 0H184ZM524 586H775L857 874H608L524 586Z"></glyph><glyph unicode="$" d="M354 -119L401 92Q305 98 218 118T63 171V381Q140 339 239 311T439 279L523 667Q437 699 370 743T266 852T228 1008Q228 1127 286 1209T445 1336T674 1392L711 1554H842L808 1391Q888 1383 959 1363T1096 1308L1012 1125Q958 1153 895 1174T767 1199L688 827Q780 792 848 750T953 646T991 492Q991 377 937 292T780 156T530 92L486 -119H354ZM571 284Q625 291 668 314T737 376T762 470Q762 505 749 532T709 581T643 617L571 284ZM567 876L634 1199Q583 1193 542 1173T476 1114T452 1019Q452 987 465 960T503 912T567 876Z"></glyph><glyph unicode="%" d="M232 0L1319 1462H1511L427 0H232ZM397 565Q273 565 207 645T140 872Q140 939 152 1020T192 1183T266 1332T381 1441T544 1483Q670 1483 737 1407T805 1185Q805 1122 793 1041T752 876T676 723T560 609T397 565ZM414 732Q456 732 489 765T545 851T584 965T606 1085T613 1186Q613 1254 592 1285T530 1317Q489 1317 457 1286T401 1205T362 1095T339 974T331 865Q331 799 351 766T414 732ZM1203 -19Q1076 -19 1009 57T942 277Q942 351 954 435T995 602T1070 751T1185 858T1346 898Q1472 898 1540 823T1608 605Q1608 539 1595 457T1554 291T1478 137T1363 24T1203 -19ZM1215 147Q1258 147 1290 180T1347 266T1386 381T1408 501T1416 600Q1416 669 1395 700T1331 732Q1290 732 1258 701T1203 620T1165 510T1142 389T1135 281Q1135 214 1154 181T1215 147Z"></glyph><glyph unicode="&amp;" d="M472 -20Q286 -20 178 75T69 349Q69 456 111 537T237 684T443 809Q403 875 378 946T353 1091Q353 1212 404 1300T548 1437T765 1485Q878 1485 954 1446T1068 1340T1107 1187Q1107 1084 1058 1008T922 873T724 764L961 437Q1024 504 1066 579T1142 737H1375Q1337 647 1292 566T1193 414T1078 278L1280 0H1007L912 132Q824 65 720 23T472 -20ZM510 177Q571 177 622 191T718 231T804 286L539 666Q475 632 423 593T340 500T309 369Q309 313 334 270T404 202T510 177ZM633 900Q679 923 723 948T805 1005T864 1076T886 1163Q886 1229 849 1264T752 1300Q694 1300 654 1275T592 1206T571 1101Q571 1047 587 995T633 900Z"></glyph><glyph unicode="'" d="M212 934L286 1462H515L364 934H212Z"></glyph><glyph unicode="(" d="M225 -324Q177 -238 144 -142T94 59T77 275Q77 455 110 617T208 925T366 1204T581 1462H790Q680 1343 589 1209T430 927T327 615T290 271Q290 160 303 57T343 -142T407 -324H225Z"></glyph><glyph unicode=")" d="M-151 -324Q-41 -204 50 -70T208 212T311 524T348 868Q348 979 335 1082T296 1280T232 1462H414Q462 1377 494 1281T544 1080T561 863Q561 683 528 522T431 214T273 -65T57 -324H-151Z"></glyph><glyph unicode="*" d="M742 601L639 968L412 663L251 803L542 1067L194 1172L264 1365L617 1184L656 1568L866 1526L751 1157L1153 1184L1140 979L776 1020L945 662L742 601Z"></glyph><glyph unicode="+" d="M704 811H1104V633H704V229H526V633H127V811H526V1219H704V811Z"></glyph><glyph unicode="," d="M-95 -264Q-58 -182 -22 -93T46 81T104 238H337L345 215Q312 143 269 60T178 -106T81 -264H-95Z"></glyph><glyph unicode="-" d="M49 448L92 650H595L552 448H49Z"></glyph><glyph unicode="." d="M162 -27Q96 -27 66 8T35 94Q35 163 75 218T210 273Q265 273 298 241T332 150Q332 78 288 26T162 -27Z"></glyph><glyph unicode="/" d="M-91 0L721 1462H953L142 0H-91Z"></glyph><glyph unicode="0" d="M476 -20Q284 -20 189 107T93 469Q93 587 109 707T158 941T243 1153T364 1326T522 1443T719 1485Q813 1485 884 1456T1004 1368T1077 1221T1102 1016Q1102 890 1086 765T1038 523T955 309T835 137T676 22T476 -20ZM498 176Q558 176 608 213T698 314T770 463T822 642T854 834T865 1023Q865 1155 825 1222T701 1289Q641 1289 590 1251T498 1146T425 995T372 819T339 636T328 466Q328 325 368 251T498 176Z"></glyph><glyph unicode="1" d="M402 0L591 881Q602 930 615 987T644 1099T671 1195Q646 1172 611 1145T539 1095L346 973L240 1143L752 1462H949L638 0H402Z"></glyph><glyph unicode="2" d="M-20 0L16 178L491 603Q585 687 652 753T762 875T825 986T846 1099Q846 1184 797 1233T659 1283Q605 1283 555 1267T454 1219T346 1143L234 1302Q329 1380 440 1431T693 1483Q825 1483 912 1437T1043 1313T1087 1140Q1087 1015 1036 912T885 708T643 484L328 215V206H951L909 0H-20Z"></glyph><glyph unicode="3" d="M416 -20Q300 -20 203 0T30 60V274Q107 229 208 201T410 173Q489 173 552 191T659 243T727 328T751 444Q751 512 722 560T630 635T470 662H334L371 841H476Q547 841 614 857T735 908T820 994T851 1117Q851 1194 802 1241T661 1288Q568 1288 492 1255T348 1177L246 1338Q338 1401 445 1442T701 1483Q829 1483 915 1441T1046 1325T1090 1155Q1090 1052 1046 970T921 832T723 756V747Q836 726 912 649T989 435Q989 348 956 267T852 121T674 18T416 -20Z"></glyph><glyph unicode="4" d="M551 0L619 321H-5L33 513L837 1463H1088L888 515H1088L1046 321H846L778 0H551ZM260 515H660L730 829Q744 893 761 963T797 1096T826 1194H817Q792 1154 754 1101T682 1008L260 515Z"></glyph><glyph unicode="5" d="M410 -20Q338 -20 273 -10T151 18T52 61V276Q125 232 213 204T396 176Q495 176 565 201T679 271T743 373T764 492Q764 594 703 658T512 722Q449 722 393 712T285 687L197 753L400 1462H1113L1070 1255H562L453 889Q484 896 523 902T611 908Q727 908 816 864T955 733T1006 520Q1006 415 973 319T868 146T684 25T410 -20Z"></glyph><glyph unicode="6" d="M515 -20Q386 -20 295 33T157 191T109 449Q109 562 129 680T190 913T291 1127T429 1301Q492 1361 567 1402T732 1463T930 1484Q988 1484 1042 1477T1135 1459L1093 1264Q1057 1275 1011 1282T911 1289Q777 1289 672 1233T492 1061T370 762H378Q414 812 463 851T573 912T708 934Q860 934 949 839T1039 566Q1039 470 1010 368T919 177T758 35T515 -20ZM530 174Q597 174 648 205T735 290T788 410T806 547Q806 642 761 695T626 748Q557 748 501 715T406 634T355 540Q349 522 346 502T341 461T339 419Q339 370 350 326T384 247T444 194T530 174Z"></glyph><glyph unicode="7" d="M126 0L881 1259H205L248 1462H1184L1151 1300L389 0H126Z"></glyph><glyph unicode="8" d="M508 -20Q363 -20 267 29T122 161T74 347Q74 454 118 535T245 677T446 780Q399 815 360 859T297 959T273 1088Q273 1204 329 1293T488 1434T730 1485Q864 1485 949 1440T1076 1320T1118 1158Q1118 1051 1072 976T950 849T788 764Q851 726 902 676T984 558T1015 398Q1015 288 960 193T793 39T508 -20ZM528 163Q615 163 671 196T756 282T784 395Q784 458 762 507T697 597T595 671Q508 642 444 602T345 506T309 368Q309 273 369 218T528 163ZM647 866Q724 895 778 932T860 1018T889 1131Q889 1211 840 1256T710 1302Q646 1302 599 1276T526 1205T500 1098Q500 1014 541 960T647 866Z"></glyph><glyph unicode="9" d="M332 -20Q268 -20 203 -11T91 13V218Q137 203 198 190T328 176Q434 176 514 213T652 318T751 481T818 692H809Q776 644 730 608T627 551T499 530Q384 530 307 577T191 712T152 915Q152 993 171 1073T231 1227T335 1358T485 1450T684 1484Q807 1484 896 1434T1033 1279T1081 1017Q1081 909 1063 791T1009 558T921 343T801 170Q756 122 705 87T595 28T471 -8T332 -20ZM566 716Q631 716 684 744T775 820T830 923Q840 951 844 983T848 1052Q848 1121 828 1175T767 1259T663 1290Q595 1290 543 1260T456 1179T403 1064T385 932Q385 828 432 772T566 716Z"></glyph><glyph unicode=":" d="M336 831Q271 831 240 865T209 950Q209 997 227 1038T283 1105T385 1131Q440 1131 473 1099T507 1007Q507 935 463 883T336 831ZM162 -27Q96 -27 66 8T35 94Q35 163 75 218T210 273Q265 273 298 241T332 150Q332 78 288 26T162 -27Z"></glyph><glyph unicode=";" d="M-100 -264Q-64 -182 -28 -93T40 81T98 238H332L339 215Q306 143 263 60T172 -106T76 -264H-100ZM336 831Q270 831 240 865T209 950Q209 997 227 1038T283 1105T385 1131Q440 1131 473 1099T507 1007Q507 935 463 883T336 831Z"></glyph><glyph unicode="&lt;" d="M1104 223L127 655V774L1104 1260V1066L371 723L1104 416V223Z"></glyph><glyph unicode="=" d="M133 833V1009H1098V833H133ZM133 434V611H1098V434H133Z"></glyph><glyph unicode="&gt;" d="M127 416L860 722L127 1066V1260L1104 774V655L127 223V416Z"></glyph><glyph unicode="?" d="M260 446Q276 539 305 607T383 733T512 847Q578 894 628 935T705 1023T733 1130Q733 1204 692 1246T566 1288Q491 1288 418 1262T266 1197L190 1371Q277 1418 381 1450T597 1483Q767 1483 866 1398T965 1157Q965 1059 928 985T824 849T667 723Q598 675 557 637T494 556T456 446H260ZM286 -27Q220 -27 190 8T159 94Q159 163 199 218T334 273Q389 273 422 241T456 150Q456 78 412 26T286 -27Z"></glyph><glyph unicode="@" d="M794 -186Q630 -186 502 -137T284 4T148 221T101 502Q101 669 147 815T279 1080T484 1284T748 1414T1059 1460Q1271 1460 1415 1382T1633 1165T1707 845Q1707 742 1686 648T1624 474T1527 335T1398 244T1242 211Q1146 211 1094 256T1028 377H1019Q975 304 910 258T746 211Q633 211 561 284T488 508Q488 599 512 682T583 835T694 956T838 1036T1007 1065Q1110 1065 1181 1048T1310 1008L1210 619Q1195 565 1187 528T1178 456Q1178 405 1200 384T1258 363Q1305 363 1346 390T1421 464T1477 571T1513 700T1526 837Q1526 973 1476 1078T1317 1244T1034 1304Q902 1304 787 1266T580 1159T421 992T319 774T284 516Q284 358 342 235T518 43T816 -27Q934 -27 1040 -4T1246 58V-97Q1146 -137 1032 -161T794 -186ZM789 363Q880 363 939 444T1034 657L1097 897Q1077 904 1051 909T991 915Q919 915 861 881T761 790T697 662T674 520Q674 435 706 399T789 363Z"></glyph><glyph unicode="A" d="M-119 0L665 1462H940L1106 0H874L833 407H344L134 0H-119ZM447 613H817L784 972Q779 1039 773 1113T767 1255H761Q736 1190 703 1121T632 978L447 613Z"></glyph><glyph unicode="B" d="M70 0L379 1462H781Q919 1462 1019 1428T1173 1322T1228 1134Q1228 1035 1189 959T1077 833T903 763V754Q1004 727 1067 655T1130 466Q1130 308 1056 205T853 51T560 0H70ZM349 201H573Q669 201 739 231T848 320T887 465Q887 556 831 611T650 666H448L349 201ZM488 859H688Q773 859 839 883T944 959T983 1091Q983 1175 930 1219T759 1263H574L488 859Z"></glyph><glyph unicode="C" d="M664 -20Q494 -20 377 49T198 246T137 547Q137 679 167 813T260 1067T416 1281T636 1429T923 1484Q1045 1484 1136 1461T1315 1391L1222 1196Q1158 1232 1086 1256T923 1280Q812 1280 725 1238T573 1123T466 957T403 761T382 557Q382 378 465 282T709 185Q794 185 877 204T1042 253V49Q972 23 880 2T664 -20Z"></glyph><glyph unicode="D" d="M70 0L379 1462H747Q1015 1462 1164 1320T1313 894Q1313 736 1278 599T1173 352T1002 163T767 42T472 0H70ZM349 201H484Q600 201 693 236T857 334T974 484T1044 672T1068 887Q1068 1082 975 1172T722 1263H574L349 201Z"></glyph><glyph unicode="E" d="M70 0L379 1462H1158L1115 1260H573L489 863H996L954 662H447L349 203H891L848 0H70Z"></glyph><glyph unicode="F" d="M70 0L379 1462H1156L1114 1260H573L477 803H982L938 601H433L306 0H70Z"></glyph><glyph unicode="G" d="M682 -20Q425 -20 281 125T137 541Q137 696 173 837T278 1097T447 1302T676 1436T959 1484Q1081 1484 1180 1461T1375 1392L1285 1192Q1210 1230 1128 1254T951 1278Q819 1278 714 1221T535 1063T421 833T382 558Q382 444 418 360T530 231T723 185Q789 185 842 194T942 217L1024 590H740L784 793H1300L1142 58Q1046 24 938 2T682 -20Z"></glyph><glyph unicode="H" d="M71 0L380 1462H617L490 864H1060L1186 1462H1422L1113 0H876L1016 660H447L307 0H71Z"></glyph><glyph unicode="I" d="M69 0L380 1462H616L304 0H69Z"></glyph><glyph unicode="J" d="M-150 -407Q-206 -407 -248 -400T-322 -382L-319 -182Q-286 -190 -247 -196T-163 -202Q-98 -202 -48 -176T37 -94T91 48L392 1462H629L322 17Q289 -134 227 -227T70 -364T-150 -407Z"></glyph><glyph unicode="K" d="M70 0L379 1462H616L462 749L603 920L1103 1462H1386L768 792L1090 0H828L575 656L422 554L306 0H70Z"></glyph><glyph unicode="L" d="M70 0L379 1462H616L349 204H891L848 0H70Z"></glyph><glyph unicode="M" d="M69 0L378 1462H699L808 309H816L1425 1462H1766L1459 0H1234L1403 800Q1419 876 1437 951T1472 1095T1504 1214H1497L853 0H646L532 1214H524Q520 1171 509 1102T484 954T454 799L286 0H69Z"></glyph><glyph unicode="N" d="M69 0L378 1462H645L1047 312H1053Q1060 358 1071 425T1096 566T1123 701L1285 1462H1502L1193 0H933L522 1167H515Q512 1144 505 1098T489 991T468 869T445 754L286 0H69Z"></glyph><glyph unicode="O" d="M678 -20Q501 -20 381 49T199 246T137 543Q137 663 158 778T222 999T327 1193T475 1347T663 1449T892 1485Q1148 1485 1284 1334T1421 924Q1421 804 1402 688T1342 466T1240 272T1097 118T910 17T678 -20ZM692 185Q765 185 829 211T946 284T1042 399T1114 548T1160 724T1176 922Q1176 1089 1098 1185T874 1281Q799 1281 734 1255T613 1179T516 1062T443 912T398 738T382 545Q382 431 418 350T524 227T692 185Z"></glyph><glyph unicode="P" d="M70 0L379 1462H747Q914 1462 1015 1412T1163 1272T1210 1060Q1210 934 1166 839T1038 679T838 582T574 549H422L306 0H70ZM465 747H599Q713 747 796 781T924 884T970 1053Q970 1162 910 1212T729 1263H574L465 747Z"></glyph><glyph unicode="Q" d="M905 -348L706 -19Q698 -19 691 -19T677 -20Q500 -19 380 50T199 245T137 543Q137 663 158 778T222 999T327 1193T475 1347T663 1449T892 1485Q1148 1485 1284 1334T1421 924Q1421 806 1402 692T1343 475T1245 284T1108 131T931 28L1193 -348H905ZM692 185Q766 185 830 211T948 284T1044 399T1115 548T1160 724T1176 922Q1176 1089 1098 1185T874 1281Q799 1281 734 1255T613 1179T516 1062T443 912T398 738T382 545Q382 431 418 350T524 227T692 185Z"></glyph><glyph unicode="R" d="M70 0L379 1462H718Q940 1462 1060 1369T1180 1079Q1180 967 1141 879T1024 730T834 634L1085 0H827L617 586H430L306 0H70ZM472 784H599Q682 784 745 803T851 857T915 945T937 1064Q937 1169 877 1215T693 1262H574L472 784Z"></glyph><glyph unicode="S" d="M390 -20Q280 -20 194 0T40 58V278Q117 237 203 210T392 182Q452 182 505 194T599 234T663 302T686 401Q686 459 662 501T591 580T473 662Q405 706 346 759T251 882T215 1050Q215 1150 251 1230T354 1366T510 1453T705 1483Q819 1483 910 1460T1086 1391L999 1203Q932 1236 858 1257T705 1279Q653 1279 609 1265T531 1224T480 1158T461 1067Q461 1009 484 969T551 896T658 823Q743 770 804 714T897 589T929 426Q929 313 889 230T775 91T603 8T390 -20Z"></glyph><glyph unicode="T" d="M291 0L557 1258H177L220 1462H1218L1176 1258H795L529 0H291Z"></glyph><glyph unicode="U" d="M609 -20Q459 -20 357 29T204 169T153 388Q153 421 157 466T172 556L365 1462H602L409 554Q400 513 395 472T389 402Q389 299 449 242T630 185Q736 185 806 223T919 339T987 530L1185 1462H1422L1220 508Q1186 349 1113 230T917 46T609 -20Z"></glyph><glyph unicode="V" d="M332 0L188 1462H419L493 547Q498 499 500 446T503 341T501 246H508Q525 292 545 340T589 441T640 547L1101 1462H1352L588 0H332Z"></glyph><glyph unicode="W" d="M258 0L204 1462H430L449 606Q451 526 448 436T439 265H446Q474 344 510 438T583 609L975 1462H1196L1228 610Q1232 538 1232 441T1229 264H1236Q1254 318 1275 378T1319 497T1364 609L1727 1462H1971L1316 0H1057L1025 818Q1023 884 1022 937T1020 1038T1020 1131H1013Q991 1060 964 993T900 844L513 0H258Z"></glyph><glyph unicode="X" d="M-112 0L476 769L226 1462H471L650 918L1055 1462H1319L769 751L1043 0H788L594 593L152 0H-112Z"></glyph><glyph unicode="Y" d="M308 0L427 555L188 1462H428L584 794L1018 1462H1285L661 552L545 0H308Z"></glyph><glyph unicode="Z" d="M-40 0L-8 166L846 1258H245L288 1462H1187L1154 1295L298 204H946L904 0H-40Z"></glyph><glyph unicode="[" d="M-27 -324L353 1462H788L750 1288H524L218 -149H445L407 -324H-27Z"></glyph><glyph unicode="\" d="M440 0L220 1462H426L649 0H440Z"></glyph><glyph unicode="]" d="M-142 -324L-105 -149H120L426 1288H199L237 1462H671L290 -324H-142Z"></glyph><glyph unicode="^" d="M58 535L595 1472H717L1082 535H897L633 1224L255 535H58Z"></glyph><glyph unicode="_" d="M-186 -321L-157 -186H658L628 -321H-186Z"></glyph><glyph unicode="`" d="M530 1241Q490 1281 445 1336T360 1447T298 1548V1569H543Q557 1521 577 1469T623 1366T674 1266V1241H530Z"></glyph><glyph unicode="a" d="M401 -20Q316 -20 247 21T136 149T95 370Q95 486 119 596T189 802T300 971T447 1086T624 1128Q696 1128 750 1104T841 1038T901 947H910L970 1107H1150L915 0H736L758 179H750Q707 124 655 79T539 7T401 -20ZM487 171Q557 171 621 223T734 363T808 554Q820 604 824 649T829 739Q829 826 783 881T657 936Q602 936 553 905T463 820T394 694T349 542T333 376Q333 275 373 223T487 171Z"></glyph><glyph unicode="b" d="M577 -20Q504 -20 449 4T357 69T297 160H288L226 0H48L378 1556H611L540 1224Q529 1170 514 1110T485 1000T461 926H469Q511 979 558 1025T663 1099T796 1127Q882 1127 952 1086T1063 958T1105 737Q1105 623 1082 513T1013 307T904 138T758 22T577 -20ZM546 171Q603 171 652 202T741 289T809 416T852 568T867 731Q867 833 828 884T709 936Q661 936 617 912T534 845T466 747T413 628T380 500T368 375Q368 283 413 227T546 171Z"></glyph><glyph unicode="c" d="M506 -20Q387 -20 294 24T148 159T95 391Q95 510 120 619T195 821T315 982T477 1089T678 1128Q764 1128 839 1112T977 1066L907 881Q859 903 805 919T685 936Q604 936 539 893T428 774T358 603T333 404Q333 330 358 278T430 199T545 171Q619 171 684 192T814 246V52Q752 19 676 0T506 -20Z"></glyph><glyph unicode="d" d="M402 -20Q316 -20 247 21T136 148T95 371Q95 485 118 594T187 800T297 970T444 1085T624 1127Q696 1127 747 1102T833 1036T892 947H901Q904 973 908 1013T920 1101T937 1194L1014 1556H1247L917 0H734L756 179H749Q705 123 654 78T540 7T402 -20ZM493 171Q540 171 583 195T664 261T733 359T786 478T820 606T832 732Q832 825 788 880T655 936Q598 936 549 904T460 817T392 691T348 538T333 376Q333 275 373 223T493 171Z"></glyph><glyph unicode="e" d="M515 -20Q388 -20 294 28T148 171T96 403Q96 539 135 668T250 902T435 1067T683 1128Q853 1128 938 1052T1024 849Q1024 763 985 692T867 570T666 490T380 462H335Q334 447 333 432T332 401Q332 290 390 227T559 163Q643 163 714 184T873 247V62Q792 23 709 2T515 -20ZM364 632H398Q520 632 610 655T749 725T798 839Q798 891 766 920T669 950Q606 950 545 912T436 802T364 632Z"></glyph><glyph unicode="f" d="M-74 -492Q-117 -492 -157 -485T-226 -469V-277Q-196 -288 -169 -293T-111 -299Q-43 -299 0 -250T66 -99L283 929H106L128 1037L321 1110L342 1205Q364 1307 398 1376T480 1488T590 1548T732 1567Q792 1567 847 1555T944 1524L882 1348Q853 1360 820 1369T747 1378Q676 1378 634 1334T572 1193L554 1107H781L745 929H516L292 -131Q269 -237 226 -318T109 -446T-74 -492Z"></glyph><glyph unicode="g" d="M322 -492Q121 -492 9 -418T-104 -210Q-104 -106 -34 -30T190 97Q152 118 133 150T114 224Q114 293 161 343T305 439Q240 480 205 543T170 693Q171 791 202 871T293 1008Q351 1065 433 1096T615 1127Q655 1127 695 1122T774 1105H1156L1127 972L931 940Q947 912 954 876T962 798Q962 702 931 625T841 492Q785 438 705 410T524 380Q496 380 473 382T432 389Q375 370 347 343T319 283Q319 257 335 241Q350 227 377 220T444 207L572 191Q686 177 758 144T865 56T900 -82Q900 -190 855 -270T722 -402Q649 -446 548 -469T322 -492ZM334 -329Q421 -329 487 -314T598 -270Q640 -243 662 -205T684 -118Q684 -96 678 -80T658 -50Q634 -26 592 -13T487 7L339 23Q262 9 210 -20T131 -90T104 -184Q104 -254 162 -291T334 -329ZM528 531Q596 531 645 570T720 676T747 825Q747 863 738 891T709 937Q692 955 667 964T608 973Q557 973 517 951T448 889T404 796T388 682Q388 652 394 628T414 586Q448 531 528 531Z"></glyph><glyph unicode="h" d="M48 0L378 1556H611L538 1219Q530 1175 517 1123T489 1020T461 926H470Q510 978 560 1024T674 1098T816 1127Q907 1127 970 1092T1066 990T1099 827Q1099 789 1093 746T1077 655L938 0H704L846 672Q855 711 859 742T863 798Q863 866 831 901T732 936Q661 936 592 882T468 724T382 473L282 0H48Z"></glyph><glyph unicode="i" d="M48 0L283 1107H517L282 0H48ZM452 1273Q400 1273 365 1298T330 1379Q330 1425 347 1459T398 1511T479 1530Q531 1530 564 1506T597 1427Q597 1357 558 1315T452 1273Z"></glyph><glyph unicode="j" d="M-113 -492Q-155 -492 -195 -485T-263 -469V-277Q-234 -288 -206 -293T-146 -299Q-104 -299 -71 -279T-13 -218T26 -113L284 1107H517L251 -144Q230 -245 188 -323T72 -447T-113 -492ZM452 1273Q401 1273 366 1298T331 1379Q331 1425 348 1459T399 1511T480 1530Q532 1530 565 1506T598 1427Q598 1357 559 1315T452 1273Z"></glyph><glyph unicode="k" d="M47 0L377 1556H611L469 892Q455 823 440 765T411 664T391 597H397L894 1107H1164L678 620L968 0H708L498 471L359 370L282 0H47Z"></glyph><glyph unicode="l" d="M47 0L378 1556H611L281 0H47Z"></glyph><glyph unicode="m" d="M48 0L283 1107H466L442 898H452Q491 957 542 1009T659 1095T807 1128Q923 1128 984 1064T1061 889H1069Q1110 953 1164 1007T1287 1094T1437 1128Q1571 1128 1640 1050T1709 832Q1709 790 1704 746T1687 655L1549 0H1315L1458 672Q1466 711 1470 742T1475 802Q1475 867 1445 901T1352 936Q1300 936 1250 905T1154 815T1074 673T1017 484L915 0H682L823 670Q832 710 836 742T840 798Q840 865 812 900T721 936Q669 936 618 905T522 814T441 669T382 473L282 0H48Z"></glyph><glyph unicode="n" d="M44 0L280 1110H469L445 901H451Q491 960 544 1012T664 1098T816 1131Q908 1131 972 1095T1069 992T1102 832Q1102 791 1096 745T1079 654L940 0H701L843 673Q852 712 856 743T861 801Q861 867 829 900T732 933Q662 933 594 879T471 722T384 473L284 0H44Z"></glyph><glyph unicode="o" d="M512 -18Q386 -18 292 34T147 181T95 408Q95 519 118 624T188 820T303 979T463 1086T667 1125Q796 1125 889 1073T1032 924T1082 692Q1082 584 1060 481T992 288T879 129T719 21T512 -18ZM529 174Q585 174 633 199T721 272T787 385T830 531T845 702Q845 763 827 815T768 900T657 933Q595 933 544 904T453 822T386 703T345 559T331 404Q331 293 381 234T529 174Z"></glyph><glyph unicode="p" d="M-56 -491L283 1107H466L444 916H452Q493 971 544 1019T658 1097T798 1127Q883 1127 952 1086T1063 958T1105 735Q1105 621 1082 512T1013 306T904 137T757 22T577 -20Q505 -20 454 4T367 70T308 160H299Q294 101 285 37T263 -85L177 -491H-56ZM546 171Q603 171 652 202T741 289T809 416T852 568T867 731Q867 833 828 884T709 936Q661 936 617 912T535 845T466 748T413 629T380 501T368 375Q368 283 413 227T546 171Z"></glyph><glyph unicode="q" d="M580 -491L666 -90Q673 -58 685 -10T712 90T738 182H730Q689 128 640 82T530 8T395 -20Q313 -20 245 21T136 149T95 370Q95 484 118 593T187 799T297 970T444 1086T625 1128Q697 1128 749 1104T839 1039T903 947H912L974 1107H1152L813 -491H580ZM494 171Q542 171 585 195T665 263T733 361T786 480T819 607T831 732Q831 821 787 878T656 936Q599 936 550 904T461 817T392 691T348 538T333 376Q333 275 374 223T494 171Z"></glyph><glyph unicode="r" d="M48 0L283 1107H466L442 898H453Q496 962 546 1014T659 1097T797 1128Q824 1128 853 1125T905 1115L854 895Q832 901 806 905T751 909Q685 909 627 878T522 792T441 664T388 504L282 0H48Z"></glyph><glyph unicode="s" d="M339 -20Q235 -20 158 -3T18 48V249Q82 211 162 186T328 160Q394 160 443 178T519 229T547 311Q547 346 531 373T476 428T368 495Q295 536 245 578T168 673T141 795Q141 900 189 974T327 1088T539 1128Q637 1128 724 1106T885 1043L808 869Q753 900 686 922T542 945Q471 945 424 912T376 818Q376 786 391 761T444 709T545 649Q614 611 668 569T753 473T784 341Q784 224 730 144T575 22T339 -20Z"></glyph><glyph unicode="t" d="M390 -20Q269 -20 194 34T118 226Q118 253 121 285T132 353L254 929H94L116 1041L305 1118L431 1352H578L526 1107H808L770 929H489L366 352Q361 331 358 308T354 265Q354 220 379 195T455 170Q494 170 530 178T609 201V24Q572 7 513 -6T390 -20Z"></glyph><glyph unicode="u" d="M391 -20Q302 -20 240 15T145 116T112 276Q112 317 118 366T135 469L271 1107H505L362 435Q355 396 351 365T346 307Q346 240 377 206T476 171Q548 171 616 225T741 384T828 635L928 1107H1160L926 0H742L766 210H756Q716 151 663 99T543 13T391 -20Z"></glyph><glyph unicode="v" d="M235 0L100 1107H332L388 499Q392 460 395 406T400 301T403 216H411Q428 257 450 309T496 412T537 498L854 1107H1105L504 0H235Z"></glyph><glyph unicode="w" d="M170 0L121 1107H343L354 557Q356 462 354 378T346 218H354Q369 264 391 323T435 436T472 521L738 1107H991L1011 536Q1012 463 1012 380T1008 218H1017Q1033 266 1055 328T1102 456T1152 578L1388 1107H1630L1110 0H846L825 568Q823 615 823 670T825 783T828 896H818Q801 847 782 796T741 692T696 588L430 0H170Z"></glyph><glyph unicode="x" d="M-87 0L391 569L159 1107H404L549 733L838 1107H1112L649 557L898 0H650L492 389L184 0H-87Z"></glyph><glyph unicode="y" d="M-26 -492Q-77 -492 -109 -486T-169 -472V-285Q-142 -291 -112 -295T-46 -300Q43 -300 103 -247T215 -99L266 -6L100 1107H332L398 567Q405 511 409 447T416 324T418 223H425Q439 257 460 309T507 420T559 530L853 1107H1106L415 -175Q358 -281 293 -352T149 -457T-26 -492Z"></glyph><glyph unicode="z" d="M-39 0L-10 147L627 928H187L225 1107H933L898 941L272 180H759L722 0H-39Z"></glyph><glyph unicode="{" d="M457 -324Q293 -324 217 -262T140 -88Q140 -55 145 -23T157 42L202 248Q208 276 212 300T217 346Q217 416 165 451T10 487L48 670Q168 670 238 713T331 858L396 1163Q419 1268 463 1334T585 1431T783 1462H842L803 1281Q718 1280 668 1250T597 1127L529 817Q505 709 441 648T264 569V563Q344 540 383 485T422 351Q422 325 418 295T406 232L364 31Q359 11 356 -7T353 -41Q353 -100 391 -120T496 -141V-324H457Z"></glyph><glyph unicode="|" d="M496 -479V1553H674V-479H496Z"></glyph><glyph unicode="}" d="M-89 -324V-141Q-30 -141 14 -129T88 -83T130 13L199 322Q223 429 287 491T464 569V576Q384 600 346 654T307 787Q307 813 311 843T323 906L366 1108Q371 1128 374 1146T377 1180Q377 1238 335 1259T212 1281L246 1462H269Q380 1462 450 1435T554 1355T588 1227Q588 1194 583 1163T571 1098L525 890Q520 863 515 839T510 793Q510 723 563 688T718 653L680 469Q600 469 542 450T448 390T397 281L332 -24Q309 -132 263 -198T139 -294T-59 -324H-89Z"></glyph><glyph unicode="~" d="M582 637Q509 669 458 681T361 694Q303 694 240 659T127 573V763Q177 817 239 844T378 871Q438 871 497 859T649 807Q723 775 774 763T870 751Q929 751 991 785T1104 871V682Q1055 629 993 601T854 573Q794 573 735 585T582 637Z"></glyph><glyph unicode=" "></glyph><glyph unicode="¡" d="M-46 -372L217 645H394L224 -372H-46ZM346 817Q289 817 256 849T222 940Q222 1014 266 1065T393 1117Q458 1117 488 1082T519 995Q519 952 502 911T446 844T346 817Z"></glyph><glyph unicode="¢" d="M421 -20L467 192Q344 224 268 321T192 587Q192 698 214 800T278 991T383 1149T524 1262T700 1320L733 1483H887L851 1320Q914 1314 969 1300T1074 1263L1004 1078Q956 1100 902 1116T782 1132Q701 1132 636 1089T525 970T454 800T429 600Q429 489 485 428T642 367Q715 367 780 388T910 442V248Q849 217 778 198T618 176L576 -20H421Z"></glyph><glyph unicode="£" d="M-17 0L21 194Q82 208 132 241T220 330T275 471L309 633H113L149 806H345L406 1099Q434 1230 495 1315T649 1441T860 1483Q967 1483 1056 1458T1210 1398L1121 1216Q1067 1244 1003 1266T867 1289Q784 1289 724 1243T638 1079L580 806H913L877 633H544L511 482Q488 368 435 304T310 206H1000L957 0H-17Z"></glyph><glyph unicode="¤" d="M933 268L803 396Q759 368 706 352T595 335Q537 335 483 351T385 397L257 270L141 387L270 515Q240 561 224 613T207 723Q207 780 223 833T270 932L139 1061L257 1180L386 1051Q431 1080 485 1096T595 1113Q653 1113 705 1097T803 1050L933 1180L1053 1064L922 934Q951 889 968 835T985 723Q985 664 969 612T922 513L1050 385L933 268ZM595 502Q658 502 709 531T790 611T821 723Q821 786 791 836T709 917T595 947Q534 947 484 917T404 837T374 723Q374 662 403 612T483 532T595 502Z"></glyph><glyph unicode="¥" d="M328 0L380 246H107L140 398H412L444 550H170L204 703H419L217 1462H447L596 798L1029 1462H1276L753 703H973L940 550H665L634 398H909L877 246H604L550 0H328Z"></glyph><glyph unicode="¦" d="M496 758V1553H674V758H496ZM496 -479V317H674V-479H496Z"></glyph><glyph unicode="§" d="M356 -14Q250 -14 171 6T38 55V239Q100 203 185 175T360 146Q476 146 534 187T593 299Q593 330 575 355T518 407T411 464Q336 500 280 542T194 638T163 764Q163 837 192 893T272 991T384 1066Q338 1099 306 1149T274 1264Q274 1357 325 1424T467 1529T682 1567Q779 1567 861 1546T1014 1488L947 1332Q886 1361 818 1382T672 1404Q624 1404 582 1391T513 1350T487 1274Q487 1225 530 1191T671 1113Q747 1080 802 1039T888 944T918 820Q918 748 889 690T812 588T706 511Q749 478 778 431T808 319Q808 216 754 141T598 26T356 -14ZM579 586Q632 617 675 669T718 791Q718 832 696 864T628 926T512 984Q473 970 438 943T381 877T359 792Q359 750 380 717T449 654T579 586Z"></glyph><glyph unicode="¨" d="M918 1284Q873 1284 844 1307T814 1380Q814 1440 847 1477T941 1515Q986 1515 1014 1493T1042 1423Q1042 1359 1009 1322T918 1284ZM543 1284Q497 1284 468 1307T439 1380Q439 1440 471 1477T565 1515Q596 1515 618 1506T654 1476T667 1423Q667 1359 634 1322T543 1284Z"></glyph><glyph unicode="©" d="M852 -20Q689 -20 552 36T313 193T156 431T100 731Q100 891 156 1028T315 1267T554 1426T852 1483Q1009 1483 1145 1427T1385 1270T1546 1031T1604 731Q1604 569 1549 432T1392 193T1153 36T852 -20ZM884 268Q678 268 576 395T473 731Q473 866 521 970T663 1133T892 1193Q956 1193 1021 1177T1144 1132L1086 1005Q1036 1031 988 1045T894 1059Q770 1059 702 972T633 731Q633 573 694 488T891 403Q940 403 998 416T1107 450V318Q1058 296 1007 282T884 268ZM852 97Q982 97 1095 143T1294 275T1428 477T1477 731Q1477 862 1431 977T1300 1180T1101 1317T852 1367Q717 1367 603 1320T403 1188T272 986T225 731Q225 596 271 481T401 279T600 145T852 97Z"></glyph><glyph unicode="ª" d="M360 768Q307 768 262 793T189 874T161 1016Q161 1093 182 1174T244 1324T349 1435T499 1477Q564 1477 603 1449T665 1373H673L710 1464H831L682 780H562L575 885H567Q529 834 480 801T360 768ZM414 895Q455 895 487 918T544 978T585 1060T610 1149T618 1229Q618 1283 594 1316T516 1350Q472 1350 436 1321T374 1244T334 1138T320 1019Q320 957 344 926T414 895Z"></glyph><glyph unicode="«" d="M292 104L77 553V576L473 999L610 880L320 547L472 181L292 104ZM727 104L518 535V558L905 994L1044 880L760 531L907 181L727 104Z"></glyph><glyph unicode="¬" d="M1102 811V256H925V633H127V811H1102Z"></glyph><glyph unicode="­" d="M49 448L92 650H595L552 448H49Z"></glyph><glyph unicode="®" d="M568 284V1183H835Q1000 1183 1078 1115T1156 914Q1156 817 1107 761T995 680L1232 284H1057L856 634H724V284H568ZM724 761H830Q912 761 955 802T999 910Q999 985 959 1018T828 1051H724V761ZM852 -20Q689 -20 552 36T313 193T156 431T100 731Q100 891 156 1028T315 1267T554 1426T852 1483Q1009 1483 1145 1427T1385 1270T1546 1031T1604 731Q1604 569 1549 432T1392 193T1153 36T852 -20ZM852 97Q982 97 1095 143T1294 275T1428 477T1477 731Q1477 862 1431 977T1300 1180T1101 1317T852 1367Q717 1367 603 1320T403 1188T272 986T225 731Q225 596 271 481T401 279T600 145T852 97Z"></glyph><glyph unicode="¯" d="M193 1556L231 1721H1153L1114 1556H193Z"></glyph><glyph unicode="°" d="M438 826Q338 826 262 867T142 983T99 1154Q99 1250 141 1324T260 1441T438 1483Q539 1483 615 1441T734 1325T778 1154Q778 1057 735 983T615 868T438 826ZM439 978Q521 978 568 1026T615 1154Q615 1237 567 1285T439 1333Q357 1333 310 1285T262 1154Q262 1074 309 1026T439 978Z"></glyph><glyph unicode="±" d="M127 0V177H1105V0H127ZM704 844H1104V666H704V262H526V666H127V844H526V1252H704V844Z"></glyph><glyph unicode="²" d="M128 851L157 987L427 1210Q502 1273 551 1320T625 1408T650 1497Q650 1543 622 1569T546 1595Q499 1595 452 1575T352 1514L273 1638Q341 1692 417 1719T587 1747Q712 1747 775 1683T838 1532Q838 1455 810 1396T721 1279T568 1148L395 1010H768L735 851H128Z"></glyph><glyph unicode="³" d="M405 837Q334 837 269 851T154 891V1050Q211 1018 273 999T401 979Q490 979 542 1017T594 1125Q594 1177 559 1206T448 1236H337L367 1369H459Q518 1369 563 1384T632 1430T657 1503Q657 1553 627 1578T542 1603Q491 1603 444 1585T350 1536L282 1657Q342 1699 414 1723T575 1747Q668 1747 725 1719T810 1643T838 1539Q838 1440 779 1386T625 1307V1299Q701 1282 738 1234T775 1119Q775 1029 728 966T597 870T405 837Z"></glyph><glyph unicode="´" d="M234 1241V1266Q269 1305 310 1358T392 1466T462 1569H724V1551Q702 1523 663 1482T575 1396T478 1311T390 1241H234Z"></glyph><glyph unicode="µ" d="M-56 -491L282 1107H516L376 439Q367 399 363 366T358 309Q358 244 392 208T490 171Q563 171 630 225T753 382T839 631L941 1107H1173L937 0H757L779 194H769Q731 136 684 87T579 9T450 -20Q394 -20 354 2T290 65H282Q277 34 271 -9T257 -97T243 -174L177 -491H-56Z"></glyph><glyph unicode="¶" d="M736 -260V568Q705 559 670 555T590 550Q495 550 419 576T288 661T204 815T175 1048Q175 1192 207 1290T298 1446T439 1530T621 1556H1200V-260H1063V1383H872V-260H736Z"></glyph><glyph unicode="·" d="M278 568Q212 568 182 603T151 689Q151 758 191 813T326 868Q381 868 414 836T448 745Q448 673 404 621T278 568Z"></glyph><glyph unicode="¸" d="M-67 -492Q-105 -492 -137 -486T-190 -475V-341Q-169 -346 -142 -351T-89 -356Q-44 -356 -14 -345T32 -312T48 -258Q48 -219 13 -197T-94 -166L4 0H150L100 -95Q155 -111 196 -149T237 -262Q237 -327 204 -379T103 -461T-67 -492Z"></glyph><glyph unicode="¹" d="M375 850L472 1309Q485 1367 501 1426T529 1525Q510 1510 486 1491T441 1457L322 1383L244 1511L590 1726H753L566 850H375Z"></glyph><glyph unicode="º" d="M433 768Q313 768 244 839T174 1044Q174 1129 197 1207T265 1346T378 1442T534 1478Q669 1478 729 1401T789 1205Q789 1132 770 1055T710 913T600 808T433 768ZM447 900Q492 900 525 927T582 999T616 1098T627 1208Q627 1278 600 1311T522 1344Q476 1344 442 1318T384 1247T348 1148T336 1040Q336 969 365 935T447 900Z"></glyph><glyph unicode="»" d="M580 104L443 223L734 555L581 923L762 999L976 549V525L580 104ZM148 110L8 223L293 570L145 923L326 999L535 567V543L148 110Z"></glyph><glyph unicode="¼" d="M198 0L1284 1462H1478L393 0H198ZM323 585L420 1044Q433 1102 449 1161T477 1260Q458 1245 434 1226T389 1192L270 1118L192 1246L538 1461H701L514 585H323ZM1151 2L1189 179H818L845 317L1325 885H1523L1402 320H1524L1496 179H1372L1334 2H1151ZM1016 320H1219L1261 499Q1271 547 1280 585T1304 673Q1288 647 1257 607T1204 542L1016 320Z"></glyph><glyph unicode="½" d="M197 0L1283 1462H1477L392 0H197ZM323 585L420 1044Q433 1102 449 1161T477 1260Q458 1245 434 1226T389 1192L270 1118L192 1246L538 1461H701L514 585H323ZM932 0L961 136L1231 359Q1306 422 1355 469T1429 557T1454 646Q1454 692 1426 718T1350 744Q1303 744 1256 724T1156 663L1077 787Q1145 841 1221 868T1391 896Q1516 896 1579 832T1642 681Q1642 604 1614 545T1525 428T1372 297L1199 159H1572L1539 0H932Z"></glyph><glyph unicode="¾" d="M352 572Q281 572 216 586T101 626V785Q158 753 220 734T348 714Q437 714 489 752T541 860Q541 912 506 941T395 971H284L314 1104H406Q465 1104 510 1119T579 1165T604 1238Q604 1288 574 1313T489 1338Q438 1338 391 1320T297 1271L229 1392Q289 1434 361 1458T522 1482Q615 1482 672 1454T757 1378T785 1274Q785 1175 726 1121T572 1042V1034Q648 1017 685 969T722 854Q722 764 675 701T544 605T352 572ZM289 0L1375 1462H1569L484 0H289ZM1238 0L1276 177H905L932 315L1412 883H1610L1489 318H1611L1583 177H1459L1421 0H1238ZM1103 318H1306L1348 497Q1358 545 1367 583T1391 671Q1375 645 1344 605T1291 540L1103 318Z"></glyph><glyph unicode="¿" d="M656 645Q640 553 611 484T533 359T404 244Q338 197 288 156T211 69T183 -39Q183 -113 225 -155T350 -197Q425 -197 498 -171T650 -106L726 -280Q639 -327 535 -359T319 -392Q149 -392 50 -307T-49 -66Q-49 33 -12 106T92 242T249 368Q319 417 359 454T422 535T460 645H656ZM630 1118Q697 1118 727 1083T757 997Q757 929 717 874T582 818Q527 818 494 850T460 941Q460 1013 504 1065T630 1118Z"></glyph><glyph unicode="À" d="M-119 0L665 1462H940L1106 0H874L833 407H344L134 0H-119ZM447 613H817L784 972Q779 1039 773 1113T767 1255H761Q736 1190 703 1121T632 978L447 613ZM829 1597Q789 1637 744 1692T659 1803T597 1904V1925H842Q856 1877 876 1825T922 1722T973 1622V1597H829Z"></glyph><glyph unicode="Á" d="M-119 0L665 1462H940L1106 0H874L833 407H344L134 0H-119ZM447 613H817L784 972Q779 1039 773 1113T767 1255H761Q736 1190 703 1121T632 978L447 613ZM698 1597V1622Q733 1661 774 1714T856 1822T926 1925H1188V1907Q1166 1879 1127 1838T1039 1752T942 1667T854 1597H698Z"></glyph><glyph unicode="Â" d="M-119 0L665 1462H940L1106 0H874L833 407H344L134 0H-119ZM447 613H817L784 972Q779 1039 773 1113T767 1255H761Q736 1190 703 1121T632 978L447 613ZM457 1597L458 1622Q496 1658 552 1711T662 1822T748 1925H997Q1018 1875 1048 1820T1111 1714T1170 1622V1597H1019Q995 1620 967 1649T911 1712T858 1778Q798 1726 739 1681T622 1597H457Z"></glyph><glyph unicode="Ã" d="M-119 0L665 1462H940L1106 0H874L833 407H344L134 0H-119ZM447 613H817L784 972Q779 1039 773 1113T767 1255H761Q736 1190 703 1121T632 978L447 613ZM461 1598Q480 1693 516 1755T602 1849T717 1880Q764 1880 803 1864T876 1825T940 1787T999 1770Q1038 1770 1063 1796T1112 1882H1249Q1227 1786 1190 1723T1103 1630T988 1599Q943 1599 906 1616T835 1655T771 1693T706 1710Q669 1710 644 1682T599 1598H461Z"></glyph><glyph unicode="Ä" d="M-119 0L665 1462H940L1106 0H874L833 407H344L134 0H-119ZM447 613H817L784 972Q779 1039 773 1113T767 1255H761Q736 1190 703 1121T632 978L447 613ZM1031 1640Q986 1640 957 1663T927 1736Q927 1796 960 1833T1054 1871Q1099 1871 1127 1849T1155 1779Q1155 1715 1122 1678T1031 1640ZM656 1640Q610 1640 581 1663T552 1736Q552 1796 584 1833T678 1871Q709 1871 731 1862T767 1832T780 1779Q780 1715 747 1678T656 1640Z"></glyph><glyph unicode="Å" d="M-119 0L665 1462H940L1106 0H874L833 407H344L134 0H-119ZM447 613H817L784 972Q779 1039 773 1113T767 1255H761Q736 1190 703 1121T632 978L447 613ZM847 1585Q744 1585 679 1645T614 1811Q614 1916 680 1975T847 2035Q949 2035 1017 1976T1085 1813Q1085 1705 1017 1645T847 1585ZM847 1703Q895 1703 925 1732T955 1811Q955 1860 925 1889T847 1918Q802 1918 772 1889T741 1811Q741 1761 768 1732T847 1703Z"></glyph><glyph unicode="Æ" d="M-120 0L807 1462H1831L1789 1260H1245L1160 863H1669L1627 662H1119L1022 203H1565L1522 0H741L827 407H396L141 0H-120ZM526 612H870L1007 1260H925L526 612Z"></glyph><glyph unicode="Ç" d="M664 -20Q494 -20 377 49T198 246T137 547Q137 679 167 813T260 1067T416 1281T636 1429T923 1484Q1045 1484 1136 1461T1315 1391L1222 1196Q1158 1232 1086 1256T923 1280Q812 1280 725 1238T573 1123T466 957T403 761T382 557Q382 378 465 282T709 185Q794 185 877 204T1042 253V49Q972 23 880 2T664 -20ZM510 -492Q472 -492 440 -486T387 -475V-341Q408 -346 435 -351T488 -356Q533 -356 563 -345T609 -312T625 -258Q625 -219 590 -197T483 -166L581 0H727L677 -95Q732 -111 773 -149T814 -262Q814 -327 781 -379T680 -461T510 -492Z"></glyph><glyph unicode="È" d="M70 0L379 1462H1158L1115 1260H573L489 863H996L954 662H447L349 203H891L848 0H70ZM782 1597Q742 1637 697 1692T612 1803T550 1904V1925H795Q809 1877 829 1825T875 1722T926 1622V1597H782Z"></glyph><glyph unicode="É" d="M70 0L379 1462H1158L1115 1260H573L489 863H996L954 662H447L349 203H891L848 0H70ZM651 1597V1622Q686 1661 727 1714T809 1822T879 1925H1141V1907Q1119 1879 1080 1838T992 1752T895 1667T807 1597H651Z"></glyph><glyph unicode="Ê" d="M70 0L379 1462H1158L1115 1260H573L489 863H996L954 662H447L349 203H891L848 0H70ZM412 1597L413 1622Q451 1658 507 1711T617 1822T703 1925H952Q973 1875 1003 1820T1066 1714T1125 1622V1597H974Q950 1620 922 1649T866 1712T813 1778Q753 1726 694 1681T577 1597H412Z"></glyph><glyph unicode="Ë" d="M70 0L379 1462H1158L1115 1260H573L489 863H996L954 662H447L349 203H891L848 0H70ZM987 1640Q942 1640 913 1663T883 1736Q883 1796 916 1833T1010 1871Q1055 1871 1083 1849T1111 1779Q1111 1715 1078 1678T987 1640ZM612 1640Q566 1640 537 1663T508 1736Q508 1796 540 1833T634 1871Q665 1871 687 1862T723 1832T736 1779Q736 1715 703 1678T612 1640Z"></glyph><glyph unicode="Ì" d="M69 0L380 1462H616L304 0H69ZM512 1597Q472 1637 427 1692T342 1803T280 1904V1925H525Q539 1877 559 1825T605 1722T656 1622V1597H512Z"></glyph><glyph unicode="Í" d="M69 0L380 1462H616L304 0H69ZM383 1597V1622Q418 1661 459 1714T541 1822T611 1925H873V1907Q851 1879 812 1838T724 1752T627 1667T539 1597H383Z"></glyph><glyph unicode="Î" d="M69 0L380 1462H616L304 0H69ZM164 1597L165 1622Q203 1658 259 1711T369 1822T455 1925H704Q725 1875 755 1820T818 1714T877 1622V1597H726Q702 1620 674 1649T618 1712T565 1778Q505 1726 446 1681T329 1597H164Z"></glyph><glyph unicode="Ï" d="M69 0L380 1462H616L304 0H69ZM738 1640Q693 1640 664 1663T634 1736Q634 1796 667 1833T761 1871Q806 1871 834 1849T862 1779Q862 1715 829 1678T738 1640ZM363 1640Q317 1640 288 1663T259 1736Q259 1796 291 1833T385 1871Q416 1871 438 1862T474 1832T487 1779Q487 1715 454 1678T363 1640Z"></glyph><glyph unicode="Ð" d="M70 0L200 624H54L97 824H242L379 1462H747Q1015 1462 1164 1320T1313 894Q1313 736 1278 599T1173 352T1002 163T767 42T472 0H70ZM349 201H484Q600 201 693 236T857 334T974 484T1044 672T1068 887Q1068 1082 975 1172T722 1263H574L481 824H765L721 624H437L349 201Z"></glyph><glyph unicode="Ñ" d="M69 0L378 1462H645L1047 312H1053Q1060 358 1071 425T1096 566T1123 701L1285 1462H1502L1193 0H933L522 1167H515Q512 1144 505 1098T489 991T468 869T445 754L286 0H69ZM611 1598Q630 1693 666 1755T752 1849T867 1880Q914 1880 953 1864T1026 1825T1090 1787T1149 1770Q1188 1770 1213 1796T1262 1882H1399Q1377 1786 1340 1723T1253 1630T1138 1599Q1093 1599 1056 1616T985 1655T921 1693T856 1710Q819 1710 794 1682T749 1598H611Z"></glyph><glyph unicode="Ò" d="M678 -20Q501 -20 381 49T199 246T137 543Q137 663 158 778T222 999T327 1193T475 1347T663 1449T892 1485Q1148 1485 1284 1334T1421 924Q1421 804 1402 688T1342 466T1240 272T1097 118T910 17T678 -20ZM692 185Q765 185 829 211T946 284T1042 399T1114 548T1160 724T1176 922Q1176 1089 1098 1185T874 1281Q799 1281 734 1255T613 1179T516 1062T443 912T398 738T382 545Q382 431 418 350T524 227T692 185ZM961 1597Q921 1637 876 1692T791 1803T729 1904V1925H974Q988 1877 1008 1825T1054 1722T1105 1622V1597H961Z"></glyph><glyph unicode="Ó" d="M678 -20Q501 -20 381 49T199 246T137 543Q137 663 158 778T222 999T327 1193T475 1347T663 1449T892 1485Q1148 1485 1284 1334T1421 924Q1421 804 1402 688T1342 466T1240 272T1097 118T910 17T678 -20ZM692 185Q765 185 829 211T946 284T1042 399T1114 548T1160 724T1176 922Q1176 1089 1098 1185T874 1281Q799 1281 734 1255T613 1179T516 1062T443 912T398 738T382 545Q382 431 418 350T524 227T692 185ZM829 1597V1622Q864 1661 905 1714T987 1822T1057 1925H1319V1907Q1297 1879 1258 1838T1170 1752T1073 1667T985 1597H829Z"></glyph><glyph unicode="Ô" d="M678 -20Q501 -20 381 49T199 246T137 543Q137 663 158 778T222 999T327 1193T475 1347T663 1449T892 1485Q1148 1485 1284 1334T1421 924Q1421 804 1402 688T1342 466T1240 272T1097 118T910 17T678 -20ZM692 185Q765 185 829 211T946 284T1042 399T1114 548T1160 724T1176 922Q1176 1089 1098 1185T874 1281Q799 1281 734 1255T613 1179T516 1062T443 912T398 738T382 545Q382 431 418 350T524 227T692 185ZM588 1597L589 1622Q627 1658 683 1711T793 1822T879 1925H1128Q1149 1875 1179 1820T1242 1714T1301 1622V1597H1150Q1126 1620 1098 1649T1042 1712T989 1778Q929 1726 870 1681T753 1597H588Z"></glyph><glyph unicode="Õ" d="M678 -20Q501 -20 381 49T199 246T137 543Q137 663 158 778T222 999T327 1193T475 1347T663 1449T892 1485Q1148 1485 1284 1334T1421 924Q1421 804 1402 688T1342 466T1240 272T1097 118T910 17T678 -20ZM692 185Q765 185 829 211T946 284T1042 399T1114 548T1160 724T1176 922Q1176 1089 1098 1185T874 1281Q799 1281 734 1255T613 1179T516 1062T443 912T398 738T382 545Q382 431 418 350T524 227T692 185ZM593 1598Q612 1693 648 1755T734 1849T849 1880Q896 1880 935 1864T1008 1825T1072 1787T1131 1770Q1170 1770 1195 1796T1244 1882H1381Q1359 1786 1322 1723T1235 1630T1120 1599Q1075 1599 1038 1616T967 1655T903 1693T838 1710Q801 1710 776 1682T731 1598H593Z"></glyph><glyph unicode="Ö" d="M678 -20Q501 -20 381 49T199 246T137 543Q137 663 158 778T222 999T327 1193T475 1347T663 1449T892 1485Q1148 1485 1284 1334T1421 924Q1421 804 1402 688T1342 466T1240 272T1097 118T910 17T678 -20ZM692 185Q765 185 829 211T946 284T1042 399T1114 548T1160 724T1176 922Q1176 1089 1098 1185T874 1281Q799 1281 734 1255T613 1179T516 1062T443 912T398 738T382 545Q382 431 418 350T524 227T692 185ZM1164 1640Q1119 1640 1090 1663T1060 1736Q1060 1796 1093 1833T1187 1871Q1232 1871 1260 1849T1288 1779Q1288 1715 1255 1678T1164 1640ZM789 1640Q743 1640 714 1663T685 1736Q685 1796 717 1833T811 1871Q842 1871 864 1862T900 1832T913 1779Q913 1715 880 1678T789 1640Z"></glyph><glyph unicode="×" d="M944 1176L1068 1053L739 723L1066 395L943 270L613 597L288 271L164 396L489 723L162 1050L287 1176L614 849L944 1176Z"></glyph><glyph unicode="Ø" d="M236 -83L105 18L237 181Q186 251 162 343T137 543Q137 663 158 778T222 999T327 1193T475 1347T663 1449T892 1485Q989 1485 1068 1462T1211 1390L1331 1539L1462 1437L1327 1273Q1374 1206 1397 1117T1421 924Q1421 804 1402 688T1342 466T1240 272T1097 118T910 17T678 -20Q580 -20 501 2T357 67L236 -83ZM694 181Q768 181 833 207T952 282T1049 397T1122 546T1167 724T1183 922Q1183 960 1178 998T1163 1065L496 240Q531 214 581 198T694 181ZM401 381L1072 1218Q1036 1249 986 1267T873 1285Q796 1285 730 1258T608 1182T509 1064T437 913T392 738T376 545Q376 501 382 459T401 381Z"></glyph><glyph unicode="Ù" d="M609 -20Q459 -20 357 29T204 169T153 388Q153 421 157 466T172 556L365 1462H602L409 554Q400 513 395 472T389 402Q389 299 449 242T630 185Q736 185 806 223T919 339T987 530L1185 1462H1422L1220 508Q1186 349 1113 230T917 46T609 -20ZM918 1597Q878 1637 833 1692T748 1803T686 1904V1925H931Q945 1877 965 1825T1011 1722T1062 1622V1597H918Z"></glyph><glyph unicode="Ú" d="M609 -20Q459 -20 357 29T204 169T153 388Q153 421 157 466T172 556L365 1462H602L409 554Q400 513 395 472T389 402Q389 299 449 242T630 185Q736 185 806 223T919 339T987 530L1185 1462H1422L1220 508Q1186 349 1113 230T917 46T609 -20ZM785 1597V1622Q820 1661 861 1714T943 1822T1013 1925H1275V1907Q1253 1879 1214 1838T1126 1752T1029 1667T941 1597H785Z"></glyph><glyph unicode="Û" d="M609 -20Q459 -20 357 29T204 169T153 388Q153 421 157 466T172 556L365 1462H602L409 554Q400 513 395 472T389 402Q389 299 449 242T630 185Q736 185 806 223T919 339T987 530L1185 1462H1422L1220 508Q1186 349 1113 230T917 46T609 -20ZM545 1597L546 1622Q584 1658 640 1711T750 1822T836 1925H1085Q1106 1875 1136 1820T1199 1714T1258 1622V1597H1107Q1083 1620 1055 1649T999 1712T946 1778Q886 1726 827 1681T710 1597H545Z"></glyph><glyph unicode="Ü" d="M609 -20Q459 -20 357 29T204 169T153 388Q153 421 157 466T172 556L365 1462H602L409 554Q400 513 395 472T389 402Q389 299 449 242T630 185Q736 185 806 223T919 339T987 530L1185 1462H1422L1220 508Q1186 349 1113 230T917 46T609 -20ZM1120 1640Q1075 1640 1046 1663T1016 1736Q1016 1796 1049 1833T1143 1871Q1188 1871 1216 1849T1244 1779Q1244 1715 1211 1678T1120 1640ZM745 1640Q699 1640 670 1663T641 1736Q641 1796 673 1833T767 1871Q798 1871 820 1862T856 1832T869 1779Q869 1715 836 1678T745 1640Z"></glyph><glyph unicode="Ý" d="M308 0L427 555L188 1462H428L584 794L1018 1462H1285L661 552L545 0H308ZM626 1597V1622Q661 1661 702 1714T784 1822T854 1925H1116V1907Q1094 1879 1055 1838T967 1752T870 1667T782 1597H626Z"></glyph><glyph unicode="Þ" d="M70 0L379 1462H616L564 1220H686Q853 1220 955 1170T1103 1030T1150 819Q1150 691 1105 595T975 435T773 339T510 307H372L306 0H70ZM414 507H537Q648 507 732 540T863 641T910 812Q910 921 850 970T669 1020H522L414 507Z"></glyph><glyph unicode="ß" d="M-118 -492Q-155 -492 -194 -485T-260 -469V-276Q-231 -287 -204 -292T-147 -298Q-83 -298 -40 -254T26 -109L292 1152Q322 1293 386 1385T554 1522T809 1567Q993 1567 1101 1487T1209 1268Q1209 1188 1182 1130T1106 1028T996 942Q938 904 895 868T852 783Q852 760 868 738T911 693T967 647Q1046 584 1094 518T1143 351Q1143 234 1089 151T938 24T710 -20Q617 -20 547 -3T427 45V242Q477 209 544 185T681 160Q794 160 849 208T905 328Q905 366 892 394T850 452T771 521Q691 583 651 640T610 769Q610 838 637 886T710 972T810 1043Q855 1071 891 1099T948 1162T969 1241Q969 1306 923 1343T789 1380Q707 1380 654 1349T570 1264T524 1136L260 -126Q236 -237 192 -319T72 -446T-118 -492Z"></glyph><glyph unicode="à" d="M401 -20Q316 -20 247 21T136 149T95 370Q95 486 119 596T189 802T300 971T447 1086T624 1128Q696 1128 750 1104T841 1038T901 947H910L970 1107H1150L915 0H736L758 179H750Q707 124 655 79T539 7T401 -20ZM487 171Q557 171 621 223T734 363T808 554Q820 604 824 649T829 739Q829 826 783 881T657 936Q602 936 553 905T463 820T394 694T349 542T333 376Q333 275 373 223T487 171ZM740 1241Q700 1281 655 1336T570 1447T508 1548V1569H753Q767 1521 787 1469T833 1366T884 1266V1241H740Z"></glyph><glyph unicode="á" d="M401 -20Q316 -20 247 21T136 149T95 370Q95 486 119 596T189 802T300 971T447 1086T624 1128Q696 1128 750 1104T841 1038T901 947H910L970 1107H1150L915 0H736L758 179H750Q707 124 655 79T539 7T401 -20ZM487 171Q557 171 621 223T734 363T808 554Q820 604 824 649T829 739Q829 826 783 881T657 936Q602 936 553 905T463 820T394 694T349 542T333 376Q333 275 373 223T487 171ZM605 1241V1266Q640 1305 681 1358T763 1466T833 1569H1095V1551Q1073 1523 1034 1482T946 1396T849 1311T761 1241H605Z"></glyph><glyph unicode="â" d="M401 -20Q316 -20 247 21T136 149T95 370Q95 486 119 596T189 802T300 971T447 1086T624 1128Q696 1128 750 1104T841 1038T901 947H910L970 1107H1150L915 0H736L758 179H750Q707 124 655 79T539 7T401 -20ZM487 171Q557 171 621 223T734 363T808 554Q820 604 824 649T829 739Q829 826 783 881T657 936Q602 936 553 905T463 820T394 694T349 542T333 376Q333 275 373 223T487 171ZM366 1241L367 1266Q405 1302 461 1355T571 1466T657 1569H906Q927 1519 957 1464T1020 1358T1079 1266V1241H928Q904 1264 876 1293T820 1356T767 1422Q707 1370 648 1325T531 1241H366Z"></glyph><glyph unicode="ã" d="M401 -20Q316 -20 247 21T136 149T95 370Q95 486 119 596T189 802T300 971T447 1086T624 1128Q696 1128 750 1104T841 1038T901 947H910L970 1107H1150L915 0H736L758 179H750Q707 124 655 79T539 7T401 -20ZM487 171Q557 171 621 223T734 363T808 554Q820 604 824 649T829 739Q829 826 783 881T657 936Q602 936 553 905T463 820T394 694T349 542T333 376Q333 275 373 223T487 171ZM369 1242Q388 1337 424 1399T510 1493T625 1524Q672 1524 711 1508T784 1469T848 1431T907 1414Q946 1414 971 1440T1020 1526H1157Q1135 1430 1098 1367T1011 1274T896 1243Q851 1243 814 1260T743 1299T679 1337T614 1354Q577 1354 552 1326T507 1242H369Z"></glyph><glyph unicode="ä" d="M401 -20Q316 -20 247 21T136 149T95 370Q95 486 119 596T189 802T300 971T447 1086T624 1128Q696 1128 750 1104T841 1038T901 947H910L970 1107H1150L915 0H736L758 179H750Q707 124 655 79T539 7T401 -20ZM487 171Q557 171 621 223T734 363T808 554Q820 604 824 649T829 739Q829 826 783 881T657 936Q602 936 553 905T463 820T394 694T349 542T333 376Q333 275 373 223T487 171ZM941 1284Q896 1284 867 1307T837 1380Q837 1440 870 1477T964 1515Q1009 1515 1037 1493T1065 1423Q1065 1359 1032 1322T941 1284ZM566 1284Q520 1284 491 1307T462 1380Q462 1440 494 1477T588 1515Q619 1515 641 1506T677 1476T690 1423Q690 1359 657 1322T566 1284Z"></glyph><glyph unicode="å" d="M401 -20Q316 -20 247 21T136 149T95 370Q95 486 119 596T189 802T300 971T447 1086T624 1128Q696 1128 750 1104T841 1038T901 947H910L970 1107H1150L915 0H736L758 179H750Q707 124 655 79T539 7T401 -20ZM487 171Q557 171 621 223T734 363T808 554Q820 604 824 649T829 739Q829 826 783 881T657 936Q602 936 553 905T463 820T394 694T349 542T333 376Q333 275 373 223T487 171ZM757 1241Q654 1241 589 1301T524 1467Q524 1572 590 1631T757 1691Q859 1691 927 1632T995 1469Q995 1361 927 1301T757 1241ZM757 1359Q805 1359 835 1388T865 1467Q865 1516 835 1545T757 1574Q712 1574 682 1545T651 1467Q651 1417 678 1388T757 1359Z"></glyph><glyph unicode="æ" d="M383 -20Q297 -20 232 25T131 156T95 369Q95 489 119 601T190 808T300 975T443 1087T613 1128Q682 1128 730 1105T813 1040T873 947H883L945 1107H1093L1068 985Q1119 1051 1200 1089T1382 1128Q1517 1128 1601 1054T1685 849Q1685 763 1646 692T1528 570T1327 490T1042 462H994Q993 447 992 433T991 403Q991 297 1046 230T1229 163Q1305 163 1383 187T1533 247V60Q1455 24 1369 2T1190 -20Q1080 -20 1003 15T883 124L858 0H709L729 178H721Q674 120 625 76T516 6T383 -20ZM469 171Q520 171 567 199T654 277T727 394T778 538Q792 590 797 638T803 733Q803 824 764 880T649 936Q595 936 547 905T459 820T392 694T348 542T333 376Q333 271 371 221T469 171ZM1023 632H1059Q1181 632 1270 655T1409 725T1458 837Q1458 895 1425 922T1337 950Q1270 950 1208 912T1097 802T1023 632Z"></glyph><glyph unicode="ç" d="M506 -20Q387 -20 294 24T148 159T95 391Q95 510 120 619T195 821T315 982T477 1089T678 1128Q764 1128 839 1112T977 1066L907 881Q859 903 805 919T685 936Q604 936 539 893T428 774T358 603T333 404Q333 330 358 278T430 199T545 171Q619 171 684 192T814 246V52Q752 19 676 0T506 -20ZM319 -492Q281 -492 249 -486T196 -475V-341Q217 -346 244 -351T297 -356Q342 -356 372 -345T418 -312T434 -258Q434 -219 399 -197T292 -166L390 0H536L486 -95Q541 -111 582 -149T623 -262Q623 -327 590 -379T489 -461T319 -492Z"></glyph><glyph unicode="è" d="M515 -20Q388 -20 294 28T148 171T96 403Q96 539 135 668T250 902T435 1067T683 1128Q853 1128 938 1052T1024 849Q1024 763 985 692T867 570T666 490T380 462H335Q334 447 333 432T332 401Q332 290 390 227T559 163Q643 163 714 184T873 247V62Q792 23 709 2T515 -20ZM364 632H398Q520 632 610 655T749 725T798 839Q798 891 766 920T669 950Q606 950 545 912T436 802T364 632ZM699 1241Q659 1281 614 1336T529 1447T467 1548V1569H712Q726 1521 746 1469T792 1366T843 1266V1241H699Z"></glyph><glyph unicode="é" d="M515 -20Q388 -20 294 28T148 171T96 403Q96 539 135 668T250 902T435 1067T683 1128Q853 1128 938 1052T1024 849Q1024 763 985 692T867 570T666 490T380 462H335Q334 447 333 432T332 401Q332 290 390 227T559 163Q643 163 714 184T873 247V62Q792 23 709 2T515 -20ZM364 632H398Q520 632 610 655T749 725T798 839Q798 891 766 920T669 950Q606 950 545 912T436 802T364 632ZM567 1241V1266Q602 1305 643 1358T725 1466T795 1569H1057V1551Q1035 1523 996 1482T908 1396T811 1311T723 1241H567Z"></glyph><glyph unicode="ê" d="M515 -20Q388 -20 294 28T148 171T96 403Q96 539 135 668T250 902T435 1067T683 1128Q853 1128 938 1052T1024 849Q1024 763 985 692T867 570T666 490T380 462H335Q334 447 333 432T332 401Q332 290 390 227T559 163Q643 163 714 184T873 247V62Q792 23 709 2T515 -20ZM364 632H398Q520 632 610 655T749 725T798 839Q798 891 766 920T669 950Q606 950 545 912T436 802T364 632ZM326 1241L327 1266Q365 1302 421 1355T531 1466T617 1569H866Q887 1519 917 1464T980 1358T1039 1266V1241H888Q864 1264 836 1293T780 1356T727 1422Q667 1370 608 1325T491 1241H326Z"></glyph><glyph unicode="ë" d="M515 -20Q388 -20 294 28T148 171T96 403Q96 539 135 668T250 902T435 1067T683 1128Q853 1128 938 1052T1024 849Q1024 763 985 692T867 570T666 490T380 462H335Q334 447 333 432T332 401Q332 290 390 227T559 163Q643 163 714 184T873 247V62Q792 23 709 2T515 -20ZM364 632H398Q520 632 610 655T749 725T798 839Q798 891 766 920T669 950Q606 950 545 912T436 802T364 632ZM1157 1284Q1112 1284 1083 1307T1053 1380Q1053 1440 1086 1477T1180 1515Q1225 1515 1253 1493T1281 1423Q1281 1359 1248 1322T1157 1284ZM782 1284Q736 1284 707 1307T678 1380Q678 1440 710 1477T804 1515Q835 1515 857 1506T893 1476T906 1423Q906 1359 873 1322T782 1284Z"></glyph><glyph unicode="ì" d="M48 0L283 1107H517L282 0H48ZM682 1241Q642 1281 597 1336T512 1447T450 1548V1569H695Q709 1521 729 1469T775 1366T826 1266V1241H682Z"></glyph><glyph unicode="í" d="M48 0L283 1107H517L282 0H48ZM293 1241V1266Q328 1305 369 1358T451 1466T521 1569H783V1551Q761 1523 722 1482T634 1396T537 1311T449 1241H293Z"></glyph><glyph unicode="î" d="M48 0L283 1107H517L282 0H48ZM54 1241L55 1266Q93 1302 149 1355T259 1466T345 1569H594Q615 1519 645 1464T708 1358T767 1266V1241H616Q592 1264 564 1293T508 1356T455 1422Q395 1370 336 1325T219 1241H54Z"></glyph><glyph unicode="ï" d="M48 0L283 1107H517L282 0H48ZM628 1284Q583 1284 554 1307T524 1380Q524 1440 557 1477T651 1515Q696 1515 724 1493T752 1423Q752 1359 719 1322T628 1284ZM253 1284Q207 1284 178 1307T149 1380Q149 1440 181 1477T275 1515Q306 1515 328 1506T364 1476T377 1423Q377 1359 344 1322T253 1284Z"></glyph><glyph unicode="ð" d="M497 -20Q372 -20 279 25T133 162T81 391Q81 508 116 614T218 803T380 933T596 981Q707 981 774 937T875 831L883 832Q880 934 852 1031T750 1211L501 1072L429 1197L648 1319Q622 1345 588 1369T513 1416L618 1567Q675 1535 730 1498T828 1420L1075 1558L1144 1431L929 1312Q980 1246 1015 1168T1068 999T1086 799Q1086 674 1066 554T1002 331T889 148T723 25T497 -20ZM509 162Q571 162 620 188T707 258T768 358T805 473T817 589Q817 629 806 666T772 734T712 782T621 800Q544 800 487 764T392 666T336 529T318 377Q318 281 364 222T509 162Z"></glyph><glyph unicode="ñ" d="M44 0L280 1110H469L445 901H451Q491 960 544 1012T664 1098T816 1131Q908 1131 972 1095T1069 992T1102 832Q1102 791 1096 745T1079 654L940 0H701L843 673Q852 712 856 743T861 801Q861 867 829 900T732 933Q662 933 594 879T471 722T384 473L284 0H44ZM383 1242Q402 1337 438 1399T524 1493T639 1524Q686 1524 725 1508T798 1469T862 1431T921 1414Q960 1414 985 1440T1034 1526H1171Q1149 1430 1112 1367T1025 1274T910 1243Q865 1243 828 1260T757 1299T693 1337T628 1354Q591 1354 566 1326T521 1242H383Z"></glyph><glyph unicode="ò" d="M512 -18Q386 -18 292 34T147 181T95 408Q95 519 118 624T188 820T303 979T463 1086T667 1125Q796 1125 889 1073T1032 924T1082 692Q1082 584 1060 481T992 288T879 129T719 21T512 -18ZM529 174Q585 174 633 199T721 272T787 385T830 531T845 702Q845 763 827 815T768 900T657 933Q595 933 544 904T453 822T386 703T345 559T331 404Q331 293 381 234T529 174ZM708 1241Q668 1281 623 1336T538 1447T476 1548V1569H721Q735 1521 755 1469T801 1366T852 1266V1241H708Z"></glyph><glyph unicode="ó" d="M512 -18Q386 -18 292 34T147 181T95 408Q95 519 118 624T188 820T303 979T463 1086T667 1125Q796 1125 889 1073T1032 924T1082 692Q1082 584 1060 481T992 288T879 129T719 21T512 -18ZM529 174Q585 174 633 199T721 272T787 385T830 531T845 702Q845 763 827 815T768 900T657 933Q595 933 544 904T453 822T386 703T345 559T331 404Q331 293 381 234T529 174ZM576 1241V1266Q611 1305 652 1358T734 1466T804 1569H1066V1551Q1044 1523 1005 1482T917 1396T820 1311T732 1241H576Z"></glyph><glyph unicode="ô" d="M512 -18Q386 -18 292 34T147 181T95 408Q95 519 118 624T188 820T303 979T463 1086T667 1125Q796 1125 889 1073T1032 924T1082 692Q1082 584 1060 481T992 288T879 129T719 21T512 -18ZM529 174Q585 174 633 199T721 272T787 385T830 531T845 702Q845 763 827 815T768 900T657 933Q595 933 544 904T453 822T386 703T345 559T331 404Q331 293 381 234T529 174ZM336 1241L337 1266Q375 1302 431 1355T541 1466T627 1569H876Q897 1519 927 1464T990 1358T1049 1266V1241H898Q874 1264 846 1293T790 1356T737 1422Q677 1370 618 1325T501 1241H336Z"></glyph><glyph unicode="õ" d="M512 -18Q386 -18 292 34T147 181T95 408Q95 519 118 624T188 820T303 979T463 1086T667 1125Q796 1125 889 1073T1032 924T1082 692Q1082 584 1060 481T992 288T879 129T719 21T512 -18ZM529 174Q585 174 633 199T721 272T787 385T830 531T845 702Q845 763 827 815T768 900T657 933Q595 933 544 904T453 822T386 703T345 559T331 404Q331 293 381 234T529 174ZM340 1242Q359 1337 395 1399T481 1493T596 1524Q643 1524 682 1508T755 1469T819 1431T878 1414Q917 1414 942 1440T991 1526H1128Q1106 1430 1069 1367T982 1274T867 1243Q822 1243 785 1260T714 1299T650 1337T585 1354Q548 1354 523 1326T478 1242H340Z"></glyph><glyph unicode="ö" d="M512 -18Q386 -18 292 34T147 181T95 408Q95 519 118 624T188 820T303 979T463 1086T667 1125Q796 1125 889 1073T1032 924T1082 692Q1082 584 1060 481T992 288T879 129T719 21T512 -18ZM529 174Q585 174 633 199T721 272T787 385T830 531T845 702Q845 763 827 815T768 900T657 933Q595 933 544 904T453 822T386 703T345 559T331 404Q331 293 381 234T529 174ZM1168 1284Q1123 1284 1094 1307T1064 1380Q1064 1440 1097 1477T1191 1515Q1236 1515 1264 1493T1292 1423Q1292 1359 1259 1322T1168 1284ZM793 1284Q747 1284 718 1307T689 1380Q689 1440 721 1477T815 1515Q846 1515 868 1506T904 1476T917 1423Q917 1359 884 1322T793 1284Z"></glyph><glyph unicode="÷" d="M127 633V811H1105V633H127ZM615 237Q563 237 527 269T491 372Q491 447 527 476T615 506Q665 506 701 477T737 372Q737 302 701 270T615 237ZM615 938Q563 938 527 970T491 1072Q491 1147 527 1176T615 1206Q665 1206 701 1177T737 1072Q737 1002 701 970T615 938Z"></glyph><glyph unicode="ø" d="M169 -89L48 5L166 149Q132 202 114 266T96 408Q96 519 119 624T188 820T303 979T463 1086T667 1125Q740 1125 800 1109T908 1061L996 1169L1119 1076L1017 958Q1049 907 1064 840T1080 700Q1080 592 1058 488T991 292T878 131T719 22T513 -18Q444 -18 384 -2T276 44L169 -89ZM529 167Q588 167 637 193T726 267T792 377T835 513T852 664Q853 688 851 709T845 744L405 204Q425 187 458 177T529 167ZM334 354L780 901Q761 916 730 927T657 939Q593 939 541 911T449 835T382 723T341 589T325 445Q324 418 326 394T334 354Z"></glyph><glyph unicode="ù" d="M391 -20Q302 -20 240 15T145 116T112 276Q112 317 118 366T135 469L271 1107H505L362 435Q355 396 351 365T346 307Q346 240 377 206T476 171Q548 171 616 225T741 384T828 635L928 1107H1160L926 0H742L766 210H756Q716 151 663 99T543 13T391 -20ZM749 1241Q709 1281 664 1336T579 1447T517 1548V1569H762Q776 1521 796 1469T842 1366T893 1266V1241H749Z"></glyph><glyph unicode="ú" d="M391 -20Q302 -20 240 15T145 116T112 276Q112 317 118 366T135 469L271 1107H505L362 435Q355 396 351 365T346 307Q346 240 377 206T476 171Q548 171 616 225T741 384T828 635L928 1107H1160L926 0H742L766 210H756Q716 151 663 99T543 13T391 -20ZM616 1241V1266Q651 1305 692 1358T774 1466T844 1569H1106V1551Q1084 1523 1045 1482T957 1396T860 1311T772 1241H616Z"></glyph><glyph unicode="û" d="M391 -20Q302 -20 240 15T145 116T112 276Q112 317 118 366T135 469L271 1107H505L362 435Q355 396 351 365T346 307Q346 240 377 206T476 171Q548 171 616 225T741 384T828 635L928 1107H1160L926 0H742L766 210H756Q716 151 663 99T543 13T391 -20ZM376 1241L377 1266Q415 1302 471 1355T581 1466T667 1569H916Q937 1519 967 1464T1030 1358T1089 1266V1241H938Q914 1264 886 1293T830 1356T777 1422Q717 1370 658 1325T541 1241H376Z"></glyph><glyph unicode="ü" d="M391 -20Q302 -20 240 15T145 116T112 276Q112 317 118 366T135 469L271 1107H505L362 435Q355 396 351 365T346 307Q346 240 377 206T476 171Q548 171 616 225T741 384T828 635L928 1107H1160L926 0H742L766 210H756Q716 151 663 99T543 13T391 -20ZM951 1284Q906 1284 877 1307T847 1380Q847 1440 880 1477T974 1515Q1019 1515 1047 1493T1075 1423Q1075 1359 1042 1322T951 1284ZM576 1284Q530 1284 501 1307T472 1380Q472 1440 504 1477T598 1515Q629 1515 651 1506T687 1476T700 1423Q700 1359 667 1322T576 1284Z"></glyph><glyph unicode="ý" d="M-26 -492Q-77 -492 -109 -486T-169 -472V-285Q-142 -291 -112 -295T-46 -300Q43 -300 103 -247T215 -99L266 -6L100 1107H332L398 567Q405 511 409 447T416 324T418 223H425Q439 257 460 309T507 420T559 530L853 1107H1106L415 -175Q358 -281 293 -352T149 -457T-26 -492ZM475 1241V1266Q510 1305 551 1358T633 1466T703 1569H965V1551Q943 1523 904 1482T816 1396T719 1311T631 1241H475Z"></glyph><glyph unicode="þ" d="M-56 -491L378 1556H611L538 1215Q522 1140 501 1063T461 926H469Q514 985 565 1030T674 1101T797 1127Q935 1127 1020 1029T1105 735Q1105 627 1084 519T1020 315T916 143T771 24T587 -20Q514 -20 461 4T369 70T307 160H298Q294 102 285 38T263 -85L177 -491H-56ZM546 171Q604 171 654 202T743 289T810 416T852 568T867 731Q867 833 825 884T704 936Q635 936 571 884T459 743T386 548Q377 505 373 462T368 375Q368 283 411 227T546 171Z"></glyph><glyph unicode="ÿ" d="M-26 -492Q-77 -492 -109 -486T-169 -472V-285Q-142 -291 -112 -295T-46 -300Q43 -300 103 -247T215 -99L266 -6L100 1107H332L398 567Q405 511 409 447T416 324T418 223H425Q439 257 460 309T507 420T559 530L853 1107H1106L415 -175Q358 -281 293 -352T149 -457T-26 -492ZM1067 1284Q1022 1284 993 1307T963 1380Q963 1440 996 1477T1090 1515Q1135 1515 1163 1493T1191 1423Q1191 1359 1158 1322T1067 1284ZM692 1284Q646 1284 617 1307T588 1380Q588 1440 620 1477T714 1515Q745 1515 767 1506T803 1476T816 1423Q816 1359 783 1322T692 1284Z"></glyph><glyph unicode="–" d="M49 455L90 647H928L888 455H49Z"></glyph><glyph unicode="—" d="M49 455L90 647H1911L1870 455H49Z"></glyph><glyph unicode="‘" d="M127 961L120 983Q152 1056 195 1138T286 1304T383 1462H559Q533 1402 506 1337T452 1205T402 1077T359 961H127Z"></glyph><glyph unicode="’" d="M115 961Q151 1042 187 1131T257 1306T315 1462H547L555 1440Q523 1368 480 1286T389 1120T291 961H115Z"></glyph><glyph unicode="‚" d="M-100 -264Q-64 -183 -28 -94T42 81T100 238H332L340 215Q308 144 265 61T173 -105T76 -264H-100Z"></glyph><glyph unicode="“" d="M533 961L524 983Q557 1056 600 1138T693 1304T790 1462H965Q930 1382 893 1293T823 1118T765 961H533ZM127 961L120 983Q152 1056 195 1138T286 1304T383 1462H559Q533 1402 506 1337T452 1205T402 1077T359 961H127Z"></glyph><glyph unicode="”" d="M521 961Q557 1042 593 1131T662 1306T720 1462H953L961 1440Q930 1368 887 1286T794 1120T696 961H521ZM115 961Q151 1042 187 1131T257 1306T315 1462H547L555 1440Q523 1368 480 1286T389 1120T291 961H115Z"></glyph><glyph unicode="„" d="M305 -264Q341 -183 378 -94T448 81T506 238H738L746 215Q714 144 671 61T579 -105T482 -264H305ZM-100 -264Q-64 -183 -28 -94T42 81T100 238H332L340 215Q308 144 265 61T173 -105T76 -264H-100Z"></glyph><glyph unicode="•" d="M425 469Q319 469 248 534T176 746Q176 846 209 908T299 998T428 1027Q497 1027 553 1000T643 911T677 750Q677 652 644 590T553 498T425 469Z"></glyph><glyph unicode="‹" d="M292 104L77 551V574L473 999L610 880L320 544L472 181L292 104Z"></glyph><glyph unicode="›" d="M145 104L8 223L298 559L145 923L326 999L541 552L540 530L145 104Z"></glyph></font>
</defs>
</svg>
